<?xml version="1.0" standalone="no"?>
<!DOCTYPE svg PUBLIC "-//W3C//DTD SVG 1.1//EN" "http://www.w3.org/Graphics/SVG/1.1/DTD/svg11.dtd" >
<svg>
<metadata>
Created by FontForge 20090914 at Thu Jun  6 16:11:49 2013
 By www-data
Font data copyright Google 2012
</metadata>
<defs>
<font id="Roboto-Black" horiz-adv-x="1151" >
  <font-face 
    font-family="Roboto"
    font-weight="400"
    font-stretch="normal"
    units-per-em="2048"
    panose-1="2 0 0 0 0 0 0 0 0 0"
    ascent="1638"
    descent="-410"
    x-height="1082"
    cap-height="1456"
    bbox="-1540.27 -554.996 2461 2174"
    underline-thickness="100"
    underline-position="-100"
    unicode-range="U+0020-U+FFFD"
  />
<missing-glyph horiz-adv-x="510" 
 />
    <glyph glyph-name="fi" unicode="fi" horiz-adv-x="1302" 
d="M173 0l-0.000976562 848h-157v234h157v52c0 144 44.333 254.5 133 331.5s214.667 115.5 378 115.5c56 0 111.667 -5 167 -15s117 -24.333 185 -43l-46 -266c-57.333 14.667 -105.166 25.667 -143.499 33s-85.833 11 -142.5 11c-62 0 -109.667 -14.5 -143 -43.5
s-50 -70.167 -50 -123.5v-52h212v-234h-212v-848h-338zM1191 0h-339v1082h339v-1082z" />
    <glyph glyph-name=".notdef" horiz-adv-x="510" 
 />
    <glyph glyph-name="space" unicode=" " horiz-adv-x="510" 
 />
    <glyph glyph-name="exclam" unicode="!" horiz-adv-x="565" 
d="M454 516h-339v940h339v-940zM454 0h-339v283h339v-283z" />
    <glyph glyph-name="quotedbl" unicode="&#x22;" horiz-adv-x="649" 
d="M272 1291l-85 -249h-144v518h229v-269zM605 1291l-84 -249h-143v518h227v-269z" />
    <glyph glyph-name="numbersign" unicode="#" horiz-adv-x="1190" 
d="M619 410h-161l-67 -410h-199l67 410h-222v183h252l44 264h-221v183h251l69 416h198l-68 -416h161l69 416h199l-69 -416h231v-183h-261l-44 -264h229v-183h-259l-67 -410h-199zM488 593h161l44 264h-161z" />
    <glyph glyph-name="dollar" unicode="$" horiz-adv-x="1186" 
d="M760 386c0 52.667 -12.6699 93.4971 -38.0029 122.497s-70.333 57.5 -135 85.5c-157.333 62.667 -271.833 126.167 -343.5 190.5s-107.5 158.833 -107.5 283.5c0 112.667 38 205.5 114 278.5s177.333 115.5 304 127.5v211h159v-215c120 -17.333 215 -66.666 285 -147.999
s104 -185 102 -311l-2 -5h-331c0 72.667 -14 126.834 -42 162.501s-65.333 53.5 -112 53.5c-47.333 0 -82.333 -14.667 -105 -44s-34 -66.666 -34 -111.999c0 -46 12.167 -83.333 36.5 -112s69.833 -57.667 136.5 -87c154.667 -66 268.334 -131.833 341.001 -197.5
s109 -159.5 109 -281.5c0 -116 -36.5 -209.333 -109.5 -280s-171.167 -112.334 -294.5 -125.001v-201h-159v202c-129.333 12.667 -236.666 57.834 -321.999 135.501s-126.666 191.5 -123.999 341.5l3 6h329c0 -82.667 18 -142.167 54 -178.5s82.667 -54.5 140 -54.5
c48 0 84.333 14 109 42s37 64.667 37 110z" />
    <glyph glyph-name="percent" unicode="%" horiz-adv-x="1521" 
d="M91 1176c0 86.667 28 158.5 84 215.5s135.667 85.5 239 85.5c104.667 0 185 -28.5 241 -85.5s84 -128.833 84 -215.5v-77c0 -86.667 -28 -158.167 -84 -214.5s-135.667 -84.5 -239 -84.5c-104 0 -184.167 28.333 -240.5 85s-84.5 128 -84.5 214v77zM307 1099
c0 -33.333 9.33398 -61.166 28.001 -83.499s45.667 -33.5 81 -33.5c34 0 60.167 11.167 78.5 33.5s27.5 50.166 27.5 83.499v77c0 33.333 -9.33301 61.5 -28 84.5s-45.334 34.5 -80.001 34.5c-34 0 -60.333 -11.5 -79 -34.5s-28 -51.167 -28 -84.5v-77zM782.001 357
c0 86 28.332 157.499 84.999 214.499s136.667 85.5 240 85.5c104.667 0 184.834 -28.333 240.501 -85s83.5 -128.334 83.5 -215.001v-77c0 -87.333 -27.833 -159.166 -83.5 -215.499s-135.167 -84.5 -238.5 -84.5c-104 0 -184.5 28.333 -241.5 85
s-85.5 128.334 -85.5 215.001v77zM999 279.999c0 -32 10.668 -59.667 32.001 -83s47.333 -35 78 -35c41.333 0 69.333 10.333 84 31s22 49.667 22 87v77c0 32.667 -9.5 60.5 -28.5 83.5s-45.5 34.5 -79.5 34.5c-34.667 0 -61.334 -11.5 -80.001 -34.5s-28 -50.833 -28 -83.5
v-77zM469.001 108.999l-157 79l711 1138l157 -79z" />
    <glyph glyph-name="ampersand" unicode="&#x26;" horiz-adv-x="1380" 
d="M315 767c-42.667 60 -74.5 115.003 -95.5 165.003s-31.5 100.667 -31.5 152c0 116 37.667 210.5 113 283.5s175 109.5 299 109.5c106 0 192.167 -34 258.5 -102s99.5 -150.667 99.5 -248c0 -65.333 -15.167 -126 -45.5 -182s-71.5 -102.667 -123.5 -140l-87 -61l244 -280
c23.333 37.333 41.333 78.333 54 123s19 91.667 19 141h238c0 -94.667 -10.5 -181.334 -31.5 -260.001s-54.5 -148.667 -100.5 -210l220 -253l-2 -5h-369l-74 84c-58 -36 -115.833 -62.5 -173.5 -79.5s-121.167 -25.5 -190.5 -25.5c-145.333 0 -261 38 -347 114
s-129 175.333 -129 298c0 77.333 20.5 143.166 61.5 197.499s104.5 113.166 190.5 176.499zM559 239.003c28.667 0 57.5 3 86.5 9s57.5 15.333 85.5 28l-267 302l-9 -6c-20.667 -25.333 -35.167 -50.5 -43.5 -75.5s-12.5 -52.5 -12.5 -82.5
c0 -51.333 15.5 -93.333 46.5 -126s68.833 -49 113.5 -49zM480 1088c0 -26 6.33203 -52.498 18.999 -79.498s31.667 -56.5 57 -88.5l60 38c37.333 24 62.333 47.333 75 70s19 47.667 19 75c0 29.333 -10.167 55.666 -30.5 78.999s-47.166 35 -80.499 35
c-38 0 -67.333 -12.333 -88 -37s-31 -55.334 -31 -92.001z" />
    <glyph glyph-name="quotesingle" unicode="'" horiz-adv-x="316" 
d="M261 1268l-74 -283h-144v575h218v-292z" />
    <glyph glyph-name="parenleft" unicode="(" horiz-adv-x="727" 
d="M120 592c0 259.333 49.333 479.169 148 659.502s214.667 296.166 348 347.499h6l61 -159c-85.333 -62.667 -155.666 -164 -210.999 -304s-83 -320.667 -83 -542v-32c0 -222 27.667 -402.833 83 -542.5s125.666 -240.834 210.999 -303.501l-61 -159h-6
c-133.333 51.333 -249.333 167 -348 347s-148 400 -148 660v28z" />
    <glyph glyph-name="parenright" unicode=")" horiz-adv-x="726" 
d="M630 564c0 -249.333 -52.333 -466.832 -157 -652.499s-225.334 -303.834 -362.001 -354.501h-6l-61 159c84 63.333 154 164.833 210 304.5s84 320.167 84 541.5v32c0 221.333 -28 402 -84 542s-126 241.333 -210 304l61 159h6c136.667 -50.667 257.334 -169 362.001 -355
s157 -403.333 157 -652v-28z" />
    <glyph glyph-name="asterisk" unicode="*" horiz-adv-x="919" 
d="M332 958l-306 90l61 188l298 -130l-22 350h200l-25 -357l291 127l60 -190l-309 -90l205 -264l-161 -117l-173 293l-171 -283l-162 112z" />
    <glyph glyph-name="plus" unicode="+" horiz-adv-x="1094" 
d="M702 826h341v-289h-341v-391h-315v391h-342v289h342v380h315v-380z" />
    <glyph glyph-name="comma" unicode="," horiz-adv-x="541" 
d="M418 -8l-163 -318h-199l70 327v253h292v-262z" />
    <glyph glyph-name="hyphen" unicode="-" horiz-adv-x="921" 
d="M753 497h-601v261h601v-261z" />
    <glyph glyph-name="period" unicode="." horiz-adv-x="619" 
d="M473 0h-337v284h337v-284z" />
    <glyph glyph-name="slash" unicode="/" horiz-adv-x="719" 
d="M210 -125h-239l497 1581h240z" />
    <glyph glyph-name="zero" unicode="0" horiz-adv-x="1186" 
d="M1100 575c0 -196.667 -45.667 -345.167 -137 -445.5s-214.333 -150.5 -369 -150.5c-156 0 -279.667 50.167 -371 150.5s-137 248.833 -137 445.5v306c0 196.667 45.333 345.167 136 445.5s214 150.5 370 150.5c155.333 0 278.833 -50.333 370.5 -151
s137.5 -249 137.5 -445v-306zM763 904c0 111.333 -14.6689 191.333 -44.002 240s-71.666 73 -126.999 73c-56 0 -98.167 -24.333 -126.5 -73s-42.5 -128.667 -42.5 -240v-350c0 -113.333 14.333 -194.166 43 -242.499s71.334 -72.5 128.001 -72.5
c55.333 0 97.333 24.167 126 72.5s43 129.166 43 242.499v350z" />
    <glyph glyph-name="one" unicode="1" horiz-adv-x="1186" 
d="M806 0h-337v1117h-325v238l662 102v-1457z" />
    <glyph glyph-name="two" unicode="2" horiz-adv-x="1186" 
d="M1108 0l-1019 0.000976562v220l468 492c59.333 68 103 128.667 131 182s42 99.666 42 138.999c0 56 -14.167 100.667 -42.5 134s-70.833 50 -127.5 50c-50.667 0 -90.5 -21.5 -119.5 -64.5s-43.5 -97.833 -43.5 -164.5h-330l-2 6
c-3.33301 134.667 40.667 248.834 132 342.501s212.333 140.5 363 140.5c160 0 284.833 -39.333 374.5 -118s134.5 -186.334 134.5 -323.001c0 -92 -23.833 -173.333 -71.5 -244s-135.5 -175.667 -263.5 -315l-197 -211l3 -6h568v-260z" />
    <glyph glyph-name="three" unicode="3" horiz-adv-x="1186" 
d="M397 869l159 -0.000976562c60.667 0 107.334 16.333 140.001 49s49 78 49 136c0 46 -14.667 84.667 -44 116s-72 47 -128 47c-44 0 -82.667 -12.667 -116 -38s-50 -58 -50 -98h-328l-2 6c-4 116 41.667 210 137 282s211 108 347 108c158 0 284.333 -36.167 379 -108.5
s142 -174.833 142 -307.5c0 -66 -20.5 -126.833 -61.5 -182.5s-95.833 -99.167 -164.5 -130.5c78 -28.667 139 -72.167 183 -130.5s66 -128.166 66 -209.499c0 -133.333 -51 -238.166 -153 -314.499s-232.333 -114.5 -391 -114.5c-136.667 0 -256.167 35.833 -358.5 107.5
s-151.833 175.5 -148.5 311.5l2 6h330c0 -46.667 18.167 -85.834 54.5 -117.501s80.5 -47.5 132.5 -47.5c59.333 0 106.666 16.667 141.999 50s53 75.333 53 126c0 70.667 -18.5 122.167 -55.5 154.5s-89.167 48.5 -156.5 48.5h-159v251z" />
    <glyph glyph-name="four" unicode="4" horiz-adv-x="1186" 
d="M980 569h147v-262h-147v-307h-338v307h-564l-20 208l584 938v3h338v-887zM360 569h282v448l-6 2l-26 -41z" />
    <glyph glyph-name="five" unicode="5" horiz-adv-x="1186" 
d="M116 640l84.001 815.999h854v-262h-579l-37 -303c25.333 19.333 57 35 95 47s79.667 18.667 125 20c142.667 2.66699 252.334 -38.833 329.001 -124.5s115 -207.167 115 -364.5c0 -136.667 -43.667 -252.5 -131 -347.5s-212.333 -142.5 -375 -142.5
c-138.667 0 -259 38.333 -361 115s-151.333 178 -148 304l2 6l330 20c0 -58 16.167 -103.333 48.5 -136s75.166 -49 128.499 -49c61.333 0 104.833 21.5 130.5 64.5s38.5 97.5 38.5 163.5c0 80 -14.333 143 -43 189s-74 69 -136 69c-45.333 0 -81.833 -9.66699 -109.5 -29
s-46.834 -43.666 -57.501 -72.999z" />
    <glyph glyph-name="six" unicode="6" horiz-adv-x="1186" 
d="M688 1477c57.333 0 108.334 -4.83301 153.001 -14.5s94 -25.167 148 -46.5l-56 -246c-46.667 14 -87.5 24.5 -122.5 31.5s-75.167 10.5 -120.5 10.5c-80 0 -144.167 -28.167 -192.5 -84.5s-71.5 -138.5 -69.5 -246.5l3 -5c29.333 33.333 68.333 59.333 117 78
s104 28 166 28c130 0 231.167 -46.833 303.5 -140.5s108.5 -213.5 108.5 -359.5c0 -144 -47.833 -263.833 -143.5 -359.5s-217.834 -143.5 -366.501 -143.5c-159.333 0 -288 52.333 -386 157s-147 248 -147 430v293c0 192 56.5 343 169.5 453s258.167 165 435.5 165z
M621.001 724c-46.667 0 -86.832 -6.33301 -120.499 -19s-60.167 -30.334 -79.5 -53.001v-86c0 -105.333 17.167 -186.166 51.5 -242.499s82.166 -84.5 143.499 -84.5c50.667 0 92 24 124 72s48 105 48 171c0 74 -15.5 132.833 -46.5 176.5s-71.167 65.5 -120.5 65.5z" />
    <glyph glyph-name="seven" unicode="7" horiz-adv-x="1186" 
d="M1102 1196c-145.333 -166 -245.667 -328 -301 -486s-94.333 -347.667 -117 -569l-14 -141h-338l13 141c20 208 65.667 401 137 579s170 336.667 296 476h-726v260h1050v-260z" />
    <glyph glyph-name="eight" unicode="8" horiz-adv-x="1186" 
d="M1070 1067c0 -71.333 -18.333 -134.833 -55 -190.5s-87.334 -99.5 -152.001 -131.5c74 -34 132 -80.667 174 -140s63 -127.333 63 -204c0 -136 -46.667 -240.333 -140 -313s-215.333 -109 -366 -109s-273 36.5 -367 109.5s-141 177.167 -141 312.5
c0 76.667 21 144.667 63 204s100 106 174 140c-66 32 -117.167 75.833 -153.5 131.5s-54.5 119.167 -54.5 190.5c0 130 43.833 230.833 131.5 302.5s202.834 107.5 345.501 107.5c144 0 259.667 -35.833 347 -107.5s131 -172.5 131 -302.5zM763 428
c0 58 -15.6689 103.667 -47.002 137s-72.666 50 -123.999 50s-92.166 -16.667 -122.499 -50s-45.5 -79 -45.5 -137c0 -58.667 15.333 -104.834 46 -138.501s72 -50.5 124 -50.5c50.667 0 91.5 16.833 122.5 50.5s46.5 79.834 46.5 138.501zM732.998 1049
c0 52 -11.999 93 -35.999 123s-59 45 -105 45c-44.667 0 -78.834 -14.833 -102.501 -44.5s-35.5 -70.834 -35.5 -123.501c0 -53.333 12 -95.666 36 -126.999s58.667 -47 104 -47s79.833 15.5 103.5 46.5s35.5 73.5 35.5 127.5z" />
    <glyph glyph-name="nine" unicode="9" horiz-adv-x="1186" 
d="M524 239c67.333 0 122.999 24.168 166.999 72.501s66 115.166 66 200.499v64c-32.667 -40 -70.667 -70.167 -114 -90.5s-89.333 -30.5 -138 -30.5c-132.667 0 -236.5 44.833 -311.5 134.5s-112.5 212.167 -112.5 367.5c0 144.667 47.333 267.5 142 368.5
s216.667 151.5 366 151.5c146.667 0 267.5 -53 362.5 -159s142.5 -251.667 142.5 -437v-346c0 -168 -54 -302.667 -162 -404s-244 -152 -408 -152c-50 0 -101.833 5.5 -155.5 16.5s-104.834 26.5 -153.501 46.5l35 241c46.667 -15.333 90.834 -26.5 132.501 -33.5
s88.834 -10.5 141.501 -10.5zM578.999 698.001c38 0 72.167 6.66895 102.5 20.002s55.5 31.666 75.5 54.999v150c0 95.333 -15.833 168.166 -47.5 218.499s-72.167 75.5 -121.5 75.5c-52 0 -93.167 -26.333 -123.5 -79s-45.5 -113 -45.5 -181
c0 -80 13.333 -143.167 40 -189.5s66.667 -69.5 120 -69.5z" />
    <glyph glyph-name="colon" unicode=":" horiz-adv-x="613" 
d="M473 0h-337v284h337v-284zM473 798h-337v284h337v-284z" />
    <glyph glyph-name="semicolon" unicode=";" horiz-adv-x="579" 
d="M460 798h-337v284h337v-284zM460 -8l-163 -318h-199l70 327v253h292v-262z" />
    <glyph glyph-name="less" unicode="&#x3c;" horiz-adv-x="1044" 
d="M378 546v-6l552 -181v-307l-884 360v266l884 360v-306z" />
    <glyph glyph-name="equal" unicode="=" horiz-adv-x="1195" 
d="M1054 732h-926v260h926v-260zM1054 293h-926v260h926v-260z" />
    <glyph glyph-name="greater" unicode="&#x3e;" horiz-adv-x="1044" 
d="M114 732v306l884 -360v-266l-884 -360v307l552 181v6z" />
    <glyph glyph-name="question" unicode="?" horiz-adv-x="1043" 
d="M308 416c0.666992 92.667 17.332 162.33 49.999 208.997s92.334 100.334 179.001 161.001c44.667 28 79.834 62.667 105.501 104s38.5 89 38.5 143c0 56 -15 100.667 -45 134s-72.667 50 -128 50c-44.667 0 -82 -13.667 -112 -41s-45.667 -68 -47 -122h-329l-2 6
c-2 138.667 42.167 242.834 132.5 312.501s209.5 104.5 357.5 104.5c158.667 0 283.5 -40 374.5 -120s136.5 -188 136.5 -324c0 -83.333 -24.833 -160 -74.5 -230s-112.834 -125 -189.501 -165c-42.667 -28 -71.5 -58.167 -86.5 -90.5s-22.5 -76.166 -22.5 -131.499h-338z
M644.998 -0.00390625h-336v270h336v-270z" />
    <glyph glyph-name="at" unicode="@" horiz-adv-x="1809" 
d="M1729 520c-6 -146.667 -50.002 -273.498 -132.002 -380.498s-204.333 -160.5 -367 -160.5c-54 0 -100.667 15.167 -140 45.5s-67 73.166 -83 128.499c-27.333 -56.667 -61.833 -99.167 -103.5 -127.5s-90.5 -42.5 -146.5 -42.5c-99.333 0 -175.333 39.5 -228 118.5
s-72 183.833 -58 314.5c17.333 167.333 66.166 301.333 146.499 402s177.833 151 292.5 151c80.667 0 145.5 -8.66699 194.5 -26s102.833 -44 161.5 -80l-3 -4h5l-51 -566c-3.33301 -58 0.5 -97.833 11.5 -119.5s25.833 -32.5 44.5 -32.5c74.667 0 134.5 35.833 179.5 107.5
s70.167 162.167 75.5 271.5c10.667 226 -33.666 402.167 -132.999 528.5s-252.666 189.5 -459.999 189.5c-201.333 0 -361.333 -68 -480 -204s-183 -321.333 -193 -556c-11.333 -228.667 36.834 -409.334 144.501 -542.001s262.167 -199 463.5 -199
c56 0 114.167 6.16699 174.5 18.5s112.5 27.833 156.5 46.5l38 -166c-44.667 -28 -101.5 -49.833 -170.5 -65.5s-136.5 -23.5 -202.5 -23.5c-269.333 0 -476.666 83 -621.999 249s-212.333 393.333 -201 682c12 286 98 512.833 258 680.5s372.667 251.5 638 251.5
c260.667 0 460.167 -79.333 598.5 -238s202.166 -376 191.499 -652zM718.998 416.002c-6 -80 -0.167969 -140.499 17.499 -181.499s46.5 -61.5 86.5 -61.5c36 0 68.167 10 96.5 30s53.166 57 74.499 111l40 452c-14.667 3.33301 -29 6.16602 -43 8.49902s-28 3.5 -42 3.5
c-69.333 0 -122.166 -30.167 -158.499 -90.5s-60.166 -150.833 -71.499 -271.5z" />
    <glyph glyph-name="A" unicode="A" horiz-adv-x="1300" 
d="M888 283h-459l-82 -283h-340l470 1456h363l471 -1456h-340zM504 543h309l-152 521h-6z" />
    <glyph glyph-name="B" unicode="B" horiz-adv-x="1315" 
d="M114 0v1456h500c180.667 0 321.667 -33.5 423 -100.5s152 -166.833 152 -299.5c0 -69.333 -16.333 -131 -49 -185s-83 -94.667 -151 -122c85.333 -19.333 148.333 -58.166 189 -116.499s61 -125.5 61 -201.5c0 -142 -47.667 -249.333 -143 -322s-232 -109 -410 -109h-572
zM453 624.999v-364.999h233c72 0 126 14.167 162 42.5s54 71.833 54 130.5c0 63.333 -15.5 111.166 -46.5 143.499s-81.167 48.5 -150.5 48.5h-252zM453 849l168 0.000976562c76.667 1.33301 134 16.166 172 44.499s57 69.833 57 124.5c0 62 -19.333 107.167 -58 135.5
s-98 42.5 -178 42.5h-161v-347z" />
    <glyph glyph-name="C" unicode="C" horiz-adv-x="1316" 
d="M1248 511l2.00195 -6c-6.66699 -170.667 -57.167 -301 -151.5 -391s-231.166 -135 -410.499 -135c-180 0 -326.333 55.333 -439 166s-169 254.334 -169 431.001v304c0 176 54.167 319.5 162.5 430.5s249.166 166.5 422.499 166.5c184 0 324.667 -46.333 422 -139
s152.333 -224.334 165 -395.001l-2 -6h-329c-4.66699 94.667 -25.834 165 -63.501 211s-101.834 69 -192.501 69c-76.667 0 -137 -30.833 -181 -92.5s-66 -142.5 -66 -242.5v-306c0 -100.667 24 -182 72 -244s114 -93 198 -93c81.333 0 139 21.667 173 65
s53.333 112.333 58 207h329z" />
    <glyph glyph-name="D" unicode="D" horiz-adv-x="1338" 
d="M114 0v1456h526c171.333 0 314.666 -55.833 429.999 -167.5s173 -254.834 173 -429.501v-262c0 -175.333 -57.667 -318.666 -173 -429.999s-258.666 -167 -429.999 -167h-526zM453 1196v-936h164c90 0 160.333 30.833 211 92.5s76 143.167 76 244.5v264
c0 100.667 -25.333 181.667 -76 243s-121 92 -211 92h-164z" />
    <glyph glyph-name="E" unicode="E" horiz-adv-x="1165" 
d="M1024 623h-571v-363h673v-260h-1012v1456h1014v-260h-675v-313h571v-260z" />
    <glyph glyph-name="F" unicode="F" horiz-adv-x="1177" 
d="M1036 586h-583v-586h-339v1456h1024v-260h-685v-350h583v-260z" />
    <glyph glyph-name="G" unicode="G" horiz-adv-x="1356" 
d="M1264 201c-49.333 -58.667 -121 -110.334 -215 -155.001s-212 -67 -354 -67c-180 0 -326.167 55.333 -438.5 166s-168.5 254.334 -168.5 431.001v304c0 175.333 54.833 318.666 164.5 429.999s250.834 167 423.501 167c187.333 0 327.666 -43.333 420.999 -130
s146.333 -205 159 -355l-2 -6h-317c-11.333 76.667 -36.166 134.334 -74.499 173.001s-96.833 58 -175.5 58s-142 -31.167 -190 -93.5s-72 -142.833 -72 -241.5v-306c0 -101.333 23.667 -182.833 71 -244.5s113.666 -92.5 198.999 -92.5c62 0 110.667 5 146 15
s63.333 23.333 84 40v230h-229v224h568v-547z" />
    <glyph glyph-name="H" unicode="H" horiz-adv-x="1444" 
d="M1329 0h-337v586h-539v-586h-339v1456h339v-610h539v610h337v-1456z" />
    <glyph glyph-name="I" unicode="I" horiz-adv-x="611" 
d="M474 0h-337v1456h337v-1456z" />
    <glyph glyph-name="J" unicode="J" horiz-adv-x="1188" 
d="M737 1456h337.001v-999c0 -146.667 -48.167 -263 -144.5 -349s-216.833 -129 -361.5 -129c-158 0 -282.833 38 -374.5 114s-135.834 188.333 -132.501 337l2 6h330c0 -70.667 16.333 -121.167 49 -151.5s74.667 -45.5 126 -45.5c46 0 85.667 19 119 57s50 91.667 50 161
v999z" />
    <glyph glyph-name="K" unicode="K" horiz-adv-x="1325" 
d="M609 584h-156v-584h-339v1456h339v-570h115l320 570h420l-451 -659l490 -797h-412z" />
    <glyph glyph-name="L" unicode="L" horiz-adv-x="1109" 
d="M453 260h627v-260h-966v1456h339v-1196z" />
    <glyph glyph-name="M" unicode="M" horiz-adv-x="1780" 
d="M558 1456l326 -1019h6l330 1019h446v-1456h-339v361l32 665l-6 1l-351 -1027h-228l-347 1018l-6 -1l32 -656v-361h-339v1456h444z" />
    <glyph glyph-name="N" unicode="N" horiz-adv-x="1444" 
d="M1329 0h-337l-533 928l-6 -2v-926h-339v1456h339l533 -928l6 2v926h337v-1456z" />
    <glyph glyph-name="O" unicode="O" horiz-adv-x="1400" 
d="M1318 597c0 -179.333 -56.833 -327.166 -170.5 -443.499s-262.167 -174.5 -445.5 -174.5c-184.667 0 -334.334 58.167 -449.001 174.5s-172 264.166 -172 443.499v262c0 178.667 57.167 326.334 171.5 443.001s263.5 175 447.5 175
c182.667 0 331.334 -58.333 446.001 -175s172 -264.334 172 -443.001v-262zM981 861c0 104 -24.502 189.333 -73.502 256s-118.167 100 -207.5 100c-91.333 0 -161.166 -33.167 -209.499 -99.5s-72.5 -151.833 -72.5 -256.5v-264c0 -105.333 24.5 -191.333 73.5 -258
s119.167 -100 210.5 -100c88.667 0 157.334 33.333 206.001 100s73 152.667 73 258v264z" />
    <glyph glyph-name="P" unicode="P" horiz-adv-x="1344" 
d="M453 499v-499h-339v1456h591c172.667 0 309.667 -44.167 411 -132.5s152 -203.833 152 -346.5c0 -143.333 -50.667 -258.833 -152 -346.5s-238.333 -131.5 -411 -131.5h-252zM453 759l252 0.000976562c73.333 0 129.166 20.167 167.499 60.5s57.5 92.166 57.5 155.499
c0 64.667 -19.167 117.667 -57.5 159s-94.166 62 -167.499 62h-252v-437z" />
    <glyph glyph-name="Q" unicode="Q" horiz-adv-x="1451" 
d="M1326 597c0 -84.667 -13.499 -163.666 -40.499 -236.999s-65.5 -137.333 -115.5 -192l244 -236l-206 -167l-261 255c-36.667 -13.333 -74.834 -23.5 -114.501 -30.5s-80.5 -10.5 -122.5 -10.5c-184.667 0 -334.334 58.167 -449.001 174.5s-172 264.166 -172 443.499v262
c0 178.667 57.167 326.334 171.5 443.001s263.5 175 447.5 175c182.667 0 331.334 -58.333 446.001 -175s172 -264.334 172 -443.001v-262zM989.001 861.001c0 104 -24.502 189.333 -73.502 256s-118.167 100 -207.5 100c-91.333 0 -161.166 -33.167 -209.499 -99.5
s-72.5 -151.833 -72.5 -256.5v-264c0 -105.333 24.5 -191.333 73.5 -258s119.167 -100 210.5 -100c88.667 0 157.334 33.333 206.001 100s73 152.667 73 258v264z" />
    <glyph glyph-name="R" unicode="R" horiz-adv-x="1352" 
d="M453 558v-558.001h-339v1456h560c168.667 0 302.334 -39 401.001 -117s148 -184.667 148 -320c0 -75.333 -19.833 -140 -59.5 -194s-98.167 -98 -175.5 -132c89.333 -25.333 153.5 -67.5 192.5 -126.5s58.5 -132.5 58.5 -220.5v-92c0 -38 5.66699 -81.333 17 -130
s31 -83.334 59 -104.001v-20h-348c-26.667 20.667 -44.167 57.334 -52.5 110.001s-12.5 101.334 -12.5 146.001v88c0 69.333 -18.333 122.333 -55 159s-90.334 55 -161.001 55h-233zM453 817.999l223 0.000976562c68 0 120 15.5 156 46.5s54 75.5 54 133.5
c0 59.333 -18.5 107.166 -55.5 143.499s-89.167 54.5 -156.5 54.5h-221v-378z" />
    <glyph glyph-name="S" unicode="S" horiz-adv-x="1293" 
d="M887 386c0 51.333 -17 91.0029 -51 119.003s-95 57.667 -183 89c-184 58 -320.333 120.167 -409 186.5s-133 162.166 -133 287.499c0 122 52.833 220.667 158.5 296s239.834 113 402.501 113c161.333 0 293.5 -41.5 396.5 -124.5s152.833 -189.833 149.5 -320.5l-2 -6
h-328c0 58 -19.667 105.167 -59 141.5s-93.666 54.5 -162.999 54.5c-68 0 -121.333 -15 -160 -45s-58 -67 -58 -111c0 -42.667 19.5 -76.834 58.5 -102.501s112.167 -57.834 219.5 -96.501c165.333 -49.333 289.833 -110 373.5 -182s125.5 -171 125.5 -297
c0 -128 -49.833 -228.167 -149.5 -300.5s-231.834 -108.5 -396.501 -108.5c-165.333 0 -308.333 41.5 -429 124.5s-179.334 202.5 -176.001 358.5l2 6h329c0 -84 22.667 -144 68 -180s114 -54 206 -54c70 0 122.167 14 156.5 42s51.5 64.667 51.5 110z" />
    <glyph glyph-name="T" unicode="T" horiz-adv-x="1153" 
d="M1130 1196h-384v-1196h-339v1196h-381v260h1104v-260z" />
    <glyph glyph-name="U" unicode="U" horiz-adv-x="1417" 
d="M1309 1456l0.000976562 -954c0 -166 -55.167 -294.667 -165.5 -386s-254.833 -137 -433.5 -137c-180.667 0 -326.334 45.667 -437.001 137s-166 220 -166 386v954h339v-954c0 -89.333 23 -155.5 69 -198.5s111 -64.5 195 -64.5c83.333 0 147.5 21.333 192.5 64
s67.5 109 67.5 199v954h339z" />
    <glyph glyph-name="V" unicode="V" horiz-adv-x="1305" 
d="M637 395l10 -53h6l10 49l289 1065h354l-472 -1456h-365l-470 1456h353z" />
    <glyph glyph-name="W" unicode="W" horiz-adv-x="1819" 
d="M1285 501h6l191 955h327l-334 -1456h-318l-245 898h-6l-243 -898h-318l-335 1456h328l191 -955h6l257 955h235z" />
    <glyph glyph-name="X" unicode="X" horiz-adv-x="1307" 
d="M648 965l240 491h390l-417 -722l449 -734h-410l-248 501l-248 -501h-390l428 734l-417 722h387z" />
    <glyph glyph-name="Y" unicode="Y" horiz-adv-x="1310" 
d="M651 820h6l290 636h367l-495 -944v-512h-337v529l-485 927h365z" />
    <glyph glyph-name="Z" unicode="Z" horiz-adv-x="1196" 
d="M483 260h663v-260h-1079v152l651 1044h-654v260h1073v-146z" />
    <glyph glyph-name="bracketleft" unicode="[" horiz-adv-x="577" 
d="M564 1460h-118v-1564h118v-245h-456v2055h456v-246z" />
    <glyph glyph-name="backslash" unicode="\" horiz-adv-x="871" 
d="M-16 1456h338l608 -1581h-339z" />
    <glyph glyph-name="bracketright" unicode="]" horiz-adv-x="577" 
d="M14 1706h456v-2055h-456v245h119v1564h-119v246z" />
    <glyph glyph-name="asciicircum" unicode="^" horiz-adv-x="916" 
d="M289 729h-253l299 727h249l300 -727h-254l-165 413l-4 18h-6l-4 -18z" />
    <glyph glyph-name="underscore" unicode="_" horiz-adv-x="904" 
d="M903 -251h-903v251h903v-251z" />
    <glyph glyph-name="grave" unicode="`" horiz-adv-x="695" 
d="M631 1212h-275l-282 260l2 6h347z" />
    <glyph glyph-name="a" unicode="a" horiz-adv-x="1086" 
d="M718 1c-9.33301 17.333 -17.834 36.668 -25.501 58.001s-14.167 43.333 -19.5 66c-32 -44.667 -70.667 -80.167 -116 -106.5s-100.333 -39.5 -165 -39.5c-102.667 0 -186.167 29.667 -250.5 89s-96.5 138.333 -96.5 237c0 107.333 40.167 190.166 120.5 248.499
s202.5 87.5 366.5 87.5h123v77c0 46 -10.833 81.333 -32.5 106s-55.167 37 -100.5 37c-38.667 0 -67.5 -9.16699 -86.5 -27.5s-28.5 -46.833 -28.5 -85.5l-327 1l-2 6c-4.66699 98.667 36.333 181.167 123 247.5s201.334 99.5 344.001 99.5
c133.333 0 241.5 -33.333 324.5 -100s124.5 -162 124.5 -286v-408c0 -58 4.83301 -111.667 14.5 -161s24.167 -98.333 43.5 -147zM494.999 220.002c33.333 0 63.999 6.66797 91.999 20.001s50.667 30.666 68 51.999v169h-120c-53.333 0 -92.166 -13 -116.499 -39
s-36.5 -59 -36.5 -99c0 -30.667 10.5 -55.5 31.5 -74.5s48.167 -28.5 81.5 -28.5z" />
    <glyph glyph-name="b" unicode="b" 
d="M1098 518c0 -164.667 -35.332 -295.667 -105.999 -393s-175.334 -146 -314.001 -146c-59.333 0 -111 12.833 -155 38.5s-81.333 62.5 -112 110.5l-22 -128h-293v1560h338v-583c30 40 64.833 70.833 104.5 92.5s85.5 32.5 137.5 32.5c139.333 0 244.5 -51 315.5 -153
s106.5 -238.667 106.5 -410v-21zM761.001 539c0 96 -12.002 170.5 -36.002 223.5s-68.667 79.5 -134 79.5c-36.667 0 -68.167 -6.83301 -94.5 -20.5s-47.166 -33.5 -62.499 -59.5v-454c16 -23.333 37 -40.666 63 -51.999s58 -17 96 -17
c66.667 0 111.334 23.167 134.001 69.5s34 116.166 34 209.499v21z" />
    <glyph glyph-name="c" unicode="c" horiz-adv-x="1046" 
d="M558 239c45.333 0 78.998 12.334 100.998 37.001s33 61 33 109h309l2 -6c2.66699 -118 -38.166 -214.167 -122.499 -288.5s-191.833 -111.5 -322.5 -111.5c-164 0 -290.5 51 -379.5 153s-133.5 234.333 -133.5 397v23c0 162 44.333 294.167 133 396.5
s214.334 153.5 377.001 153.5c137.333 0 247 -38.333 329 -115s121.667 -181 119 -313l-2 -6h-309c0 51.333 -11.333 93.166 -34 125.499s-57 48.5 -103 48.5c-64 0 -108.833 -26.333 -134.5 -79s-38.5 -123 -38.5 -211v-23c0 -90.667 12.833 -161.667 38.5 -213
s71.5 -77 137.5 -77z" />
    <glyph glyph-name="d" unicode="d" 
d="M51 539c0 168.667 36.8311 304.667 110.498 408s177.5 155 311.5 155c50 0 95.167 -11.5 135.5 -34.5s76.5 -55.833 108.5 -98.5v591h338v-1560h-293l-24 133c-33.333 -50 -72.166 -88.167 -116.499 -114.5s-94.5 -39.5 -150.5 -39.5
c-133.333 0 -236.666 49.333 -309.999 148s-110 229 -110 391v21zM388.998 518c0 -88 12.833 -156.501 38.5 -205.501s68.834 -73.5 129.501 -73.5c35.333 0 66.5 6.5 93.5 19.5s49.167 32.167 66.5 57.5v437c-17.333 28.667 -39.333 50.667 -66 66s-57.334 23 -92.001 23
c-60 0 -103.333 -27.667 -130 -83s-40 -128.666 -40 -219.999v-21z" />
    <glyph glyph-name="e" unicode="e" horiz-adv-x="1083" 
d="M590 -21c-159.333 0 -286.5 50.001 -381.5 150.001s-142.5 225.333 -142.5 376v38c0 164.667 43.167 299.167 129.5 403.5s209.833 156.166 370.5 155.499c146.667 0 261.667 -44 345 -132s125 -207.333 125 -358v-177h-618l-2 -6c7.33301 -55.333 30 -100.833 68 -136.5
s88.667 -53.5 152 -53.5c64 0 115.167 5 153.5 15s86.833 27.333 145.5 52l80 -206c-47.333 -34.667 -108.5 -63.5 -183.5 -86.5s-155.5 -34.5 -241.5 -34.5zM566 842.001c-48.667 0 -85.168 -17.333 -109.501 -52s-39.166 -81 -44.499 -139l3 -5h291v26
c0 54.667 -11.333 96.667 -34 126s-58 44 -106 44z" />
    <glyph glyph-name="f" unicode="f" horiz-adv-x="743" 
d="M168 0l-0.00195312 848h-156v234h156v112c0 124.667 37.333 220.334 112 287.001s180.334 100 317.001 100c25.333 0 51.333 -1.83301 78 -5.5s56.334 -8.83398 89.001 -15.501l-25 -249c-18 3.33301 -34.167 5.83301 -48.5 7.5s-31.833 2.5 -52.5 2.5
c-42 0 -74.333 -11 -97 -33s-34 -53.333 -34 -94v-112h210v-234h-210v-848h-339z" />
    <glyph glyph-name="g" unicode="g" 
d="M51 539c0 168.667 36.6689 304.665 110.002 407.998s177 155 311 155c57.333 0 107.666 -13.5 150.999 -40.5s80.666 -65.5 111.999 -115.5l23 136h296v-1040c0 -144.667 -49.667 -260.667 -149 -348s-233 -131 -401 -131c-56 0 -114.667 7.66699 -176 23
s-119.666 36 -174.999 62l55 250c49.333 -21.333 96.333 -37.166 141 -47.499s95.667 -15.5 153 -15.5c69.333 0 122.333 18.667 159 56s55 88.333 55 153v55c-30.667 -39.333 -66.334 -69.166 -107.001 -89.499s-87 -30.5 -139 -30.5c-133.333 0 -236.5 49.333 -309.5 148
s-109.5 229 -109.5 391v21zM388.002 517.998c0 -88 12.833 -156.5 38.5 -205.5s68.834 -73.5 129.501 -73.5c36.667 0 68.167 5.66699 94.5 17s48.166 28.666 65.499 51.999v454c-16.667 25.333 -38.167 45 -64.5 59s-57.5 21 -93.5 21c-60 0 -103.333 -27.667 -130 -83
s-40 -128.666 -40 -219.999v-21z" />
    <glyph glyph-name="h" unicode="h" 
d="M424 948c32.667 48.667 72.5 86.5 119.5 113.5s98.833 40.5 155.5 40.5c112 0 200 -39 264 -117s96 -199 96 -363v-622h-338v624c0 82.667 -12.5 139.667 -37.5 171s-63.167 47 -114.5 47c-32.667 0 -61 -4.83301 -85 -14.5s-44 -23.167 -60 -40.5v-787h-338v1560h338
v-612z" />
    <glyph glyph-name="i" unicode="i" horiz-adv-x="561" 
d="M450 0h-339v1082h339v-1082zM450 1333h-339v227h339v-227z" />
    <glyph glyph-name="j" unicode="j" horiz-adv-x="548" 
d="M454 1082l-0.00195312 -1097c0 -134.667 -36.167 -238.667 -108.5 -312s-172.833 -110 -301.5 -110c-29.333 0 -56.166 1.33301 -80.499 4s-50.5 7 -78.5 13l14 255c19.333 -4 35.833 -7 49.5 -9s30.834 -3 51.501 -3c37.333 0 65.833 13.667 85.5 41
s29.5 67.666 29.5 120.999v1097h339zM447.998 1334h-339v226h339v-226z" />
    <glyph glyph-name="k" unicode="k" horiz-adv-x="1119" 
d="M491 430h-57v-430h-338v1560h338v-875h45l231 397h387l-336 -489l389 -593h-385z" />
    <glyph glyph-name="l" unicode="l" horiz-adv-x="561" 
d="M450 0h-339v1560h339v-1560z" />
    <glyph glyph-name="m" unicode="m" horiz-adv-x="1764" 
d="M414 1082l12 -142.999c34 52 76.833 92.167 128.5 120.5s110.834 42.5 177.501 42.5c67.333 0 125.333 -14.667 174 -44s85.334 -74 110.001 -134c33.333 56.667 76.166 100.5 128.499 131.5s113.5 46.5 183.5 46.5c105.333 0 188.166 -36.167 248.499 -108.5
s90.5 -183.833 90.5 -334.5v-659h-339v659c0 70 -10.833 118 -32.5 144s-54.167 39 -97.5 39c-32.667 0 -61.5 -5.83301 -86.5 -17.5s-46.167 -27.834 -63.5 -48.501c0 -11.333 0.333008 -21.166 1 -29.499s1 -16.5 1 -24.5v-722h-338v659c0 70 -10.667 118 -32 144
s-54.333 39 -99 39c-30.667 0 -58.5 -5.83301 -83.5 -17.5s-46.167 -27.834 -63.5 -48.501v-776h-338v1082h318z" />
    <glyph glyph-name="n" unicode="n" 
d="M407 1082l12.998 -152c35.333 54 79 96.167 131 126.5s110 45.5 174 45.5c106 0 188.833 -34.333 248.5 -103s89.5 -178 89.5 -328v-671h-338v672c0 62 -12.833 105.833 -38.5 131.5s-63.5 38.5 -113.5 38.5c-31.333 0 -59.166 -5.66699 -83.499 -17
s-45.166 -27 -62.499 -47v-778h-337v1082h317z" />
    <glyph glyph-name="o" unicode="o" 
d="M51 551c0 162.667 46 295.167 138 397.5s220.333 153.5 385 153.5c165.333 0 294 -51.167 386 -153.5s138 -234.833 138 -397.5v-21c0 -163.333 -46 -296 -138 -398s-220 -153 -384 -153c-166 0 -295 51 -387 153s-138 234.667 -138 398v21zM389 530
c0 -90.667 14.167 -161.834 42.5 -213.501s76.5 -77.5 144.5 -77.5c66 0 113.333 26 142 78s43 123 43 213v21c0 88 -14.333 158.5 -43 211.5s-76.667 79.5 -144 79.5c-66.667 0 -114.167 -26.667 -142.5 -80s-42.5 -123.666 -42.5 -210.999v-21z" />
    <glyph glyph-name="p" unicode="p" 
d="M1098 518c0 -162.667 -36.668 -293.167 -110.001 -391.5s-176.666 -147.5 -309.999 -147.5c-52 0 -98.167 10 -138.5 30s-75.5 49 -105.5 87v-512h-338v1498h316l12 -119c30.667 44.667 66.667 79 108 103s89.333 36 144 36c134 0 237.833 -51.667 311.5 -155
s110.5 -239.333 110.5 -408v-21zM760.999 539c0 91.333 -13.333 164.666 -40 219.999s-69.334 83 -128.001 83c-38 0 -70.167 -7 -96.5 -21s-47.166 -34.333 -62.499 -61v-452c16 -23.333 37.167 -40.666 63.5 -51.999s58.833 -17 97.5 -17
c59.333 0 101.833 24.5 127.5 73.5s38.5 117.5 38.5 205.5v21z" />
    <glyph glyph-name="q" unicode="q" 
d="M51 539c0 168.667 36.8311 304.667 110.498 408s177.5 155 311.5 155c56.667 0 106.834 -13.5 150.501 -40.5s81.167 -65.5 112.5 -115.5l27 136h293v-1498h-338v516c-30.667 -39.333 -66.5 -69.333 -107.5 -90s-87.5 -31 -139.5 -31
c-133.333 0 -236.666 49.333 -309.999 148s-110 229 -110 391v21zM388.998 518c0 -88 12.8311 -156.501 38.498 -205.501s68.834 -73.5 129.501 -73.5c37.333 0 69.333 5.83301 96 17.5s48.334 29.167 65.001 52.5v450c-16.667 27.333 -38.167 48 -64.5 62
s-57.833 21 -94.5 21c-60 0 -103.333 -27.667 -130 -83s-40 -128.666 -40 -219.999v-21z" />
    <glyph glyph-name="r" unicode="r" horiz-adv-x="757" 
d="M707 784l-123 0.999023c-38.667 0 -70.334 -6.5 -95.001 -19.5s-43 -31.5 -55 -55.5v-710h-338v1082h318l12 -159c22.667 56.667 52.667 100.667 90 132s81 47 131 47c16 0 32.333 -1.16699 49 -3.5s31.334 -5.16602 44.001 -8.49902z" />
    <glyph glyph-name="s" unicode="s" horiz-adv-x="1048" 
d="M660 304c0 26.667 -15.167 50.501 -45.5 71.501s-85.5 39.833 -165.5 56.5c-126 24.667 -221 63 -285 115s-96 123 -96 213c0 95.333 40 176.166 120 242.499s188.333 99.5 325 99.5c144 0 258.667 -32.167 344 -96.5s126 -147.5 122 -249.5l-2 -6h-328
c0 42.667 -10.833 75 -32.5 97s-56.5 33 -104.5 33c-35.333 0 -65 -9.66699 -89 -29s-36 -44 -36 -74c0 -28.667 13.833 -53 41.5 -73s83.5 -38 167.5 -54c132 -26 229.833 -64.833 293.5 -116.5s95.5 -124.834 95.5 -219.501c0 -97.333 -43.167 -177.5 -129.5 -240.5
s-200.5 -94.5 -342.5 -94.5c-147.333 0 -263.833 37.333 -349.5 112s-126.5 158 -122.5 250l2 6h306c1.33301 -51.333 16.833 -88.333 46.5 -111s71.834 -34 126.501 -34c45.333 0 79.666 8.83301 102.999 26.5s35 42.834 35 75.501z" />
    <glyph glyph-name="t" unicode="t" horiz-adv-x="742" 
d="M496 1351v-268.999h183v-234h-183v-496c0 -38.667 7.83301 -66.5 23.5 -83.5s36.834 -25.5 63.501 -25.5c21.333 0 38.166 0.666992 50.499 2s28.166 4 47.499 8l24 -250c-37.333 -8.66699 -71 -14.834 -101 -18.501s-65.333 -5.5 -106 -5.5
c-111.333 0 -195.666 29.667 -252.999 89s-86 153.333 -86 282v498h-152v234h152v269h337z" />
    <glyph glyph-name="u" unicode="u" 
d="M745 128c-34.667 -48 -77.167 -84.833 -127.5 -110.5s-107.166 -38.5 -170.499 -38.5c-112 0 -199.833 36 -263.5 108s-95.5 183.667 -95.5 335v660h337v-662c0 -60.667 11.5 -106 34.5 -136s55.833 -45 98.5 -45c36 0 67.667 5 95 15s50.666 25 69.999 45v783h338v-1082
h-295z" />
    <glyph glyph-name="v" unicode="v" horiz-adv-x="1053" 
d="M501 446l20 -115l6 -1l22 116l143 636h355l-352 -1082h-343l-352 1082h356z" />
    <glyph glyph-name="w" unicode="w" horiz-adv-x="1485" 
d="M1025 455h6l117 627h312l-254 -1082h-286l-176 574h-6l-177 -574h-285l-255 1082h312l119 -632h6l176 632h213z" />
    <glyph glyph-name="x" unicode="x" horiz-adv-x="1053" 
d="M524 763h6l137 319h379l-314 -535l325 -547h-379l-144 329h-6l-144 -329h-379l325 547l-315 535h377z" />
    <glyph glyph-name="y" unicode="y" horiz-adv-x="1053" 
d="M515 477l1.00098 -8h6l179 613h360l-431 -1243c-33.333 -80 -76.333 -146 -129 -198s-136.334 -78 -251.001 -78c-29.333 0 -53.333 1.83301 -72 5.5s-48 10.5 -88 20.5l41 241l21 -4.5c4.66699 -1 10.667 -1.5 18 -1.5c53.333 0 92.333 7.83301 117 23.5
s43 39.167 55 70.5l27 70l-374 1094h359z" />
    <glyph glyph-name="z" unicode="z" horiz-adv-x="1053" 
d="M492 260h492v-260h-919v188l481 634h-460v260h888v-182z" />
    <glyph glyph-name="braceleft" unicode="{" horiz-adv-x="665" 
d="M562 -360c-130 36.667 -222.5 94.9971 -277.5 174.997s-82.5 177 -82.5 291v203c0 61.333 -13.333 109.333 -40 144s-67.334 52 -122.001 52v227c54.667 0 95.334 17.167 122.001 51.5s40 82.833 40 145.5v203c0 114 27.5 210.833 82.5 290.5
s147.5 137.834 277.5 174.501l63 -176c-48.667 -19.333 -82.667 -53.666 -102 -102.999s-29 -111.333 -29 -186v-203c0 -69.333 -15.333 -130.833 -46 -184.5s-77 -95.5 -139 -125.5c62 -31.333 108.333 -73.833 139 -127.5s46 -114.5 46 -182.5v-203
c0 -74.667 9.66699 -136.667 29 -186s53.333 -83.666 102 -102.999z" />
    <glyph glyph-name="bar" unicode="|" horiz-adv-x="523" 
d="M356 -270h-184v1726h184v-1726z" />
    <glyph glyph-name="braceright" unicode="}" horiz-adv-x="665" 
d="M41 -183c48 19.333 81.833 53.667 101.5 103s29.5 111.333 29.5 186v203c0 68.667 15.167 129.834 45.5 183.501s77.166 95.834 140.499 126.501c-63.333 30 -110.166 71.833 -140.499 125.5s-45.5 115.167 -45.5 184.5v203c0 74.667 -9.83301 136.667 -29.5 186
s-53.5 83.666 -101.5 102.999l63 176c129.333 -36.667 221.666 -94.834 276.999 -174.501s83 -176.5 83 -290.5v-203c0 -62.667 13.167 -111.167 39.5 -145.5s67.166 -51.5 122.499 -51.5v-227c-55.333 0 -96.166 -17.333 -122.499 -52s-39.5 -82.667 -39.5 -144v-203
c0 -114 -27.667 -211 -83 -291s-147.666 -138.333 -276.999 -175z" />
    <glyph glyph-name="asciitilde" unicode="~" horiz-adv-x="1295" 
d="M1197 769c0 -116.667 -29.501 -212.833 -88.501 -288.5s-134.5 -113.5 -226.5 -113.5c-55.333 0 -106.666 10.167 -153.999 30.5s-96 53.5 -146 99.5c-31.333 28.667 -57.833 49 -79.5 61s-46.167 18 -73.5 18c-28.667 0 -53.167 -16.667 -73.5 -50
s-30.5 -73.666 -30.5 -120.999l-231 30c0 116.667 29 212.667 87 288s133.333 113 226 113c54 0 106 -10.833 156 -32.5s99 -53.834 147 -96.501c28.667 -28 54.167 -48.167 76.5 -60.5s46.5 -18.5 72.5 -18.5c28.667 0 53.5 16.667 74.5 50s31.5 74 31.5 122z" />
    <glyph glyph-name="nonbreakingspace" unicode="&#xa0;" horiz-adv-x="510" 
 />
    <glyph glyph-name="exclamdown" unicode="&#xa1;" horiz-adv-x="615" 
d="M480 -374h-339v940h339v-940zM480 799h-339v283h339v-283z" />
    <glyph glyph-name="cent" unicode="&#xa2;" horiz-adv-x="1210" 
d="M611 239c45.333 0 79 12.335 101 37.002s33 61 33 109h310l2 -5c2 -102 -29 -188.5 -93 -259.5s-148.333 -115.167 -253 -132.5v-233h-200v232c-133.333 20 -235.5 79 -306.5 177s-106.5 219.667 -106.5 365v23c0 144.667 35.667 266 107 364s173.333 157.333 306 178
v224h200v-225c108 -18.667 193.167 -64.834 255.5 -138.501s92.833 -167.5 91.5 -281.5l-3 -5h-310c0 51.333 -11.333 93.166 -34 125.499s-57 48.5 -103 48.5c-64 0 -108.833 -26.333 -134.5 -79s-38.5 -123 -38.5 -211v-23c0 -90.667 12.833 -161.667 38.5 -213
s71.5 -77 137.5 -77z" />
    <glyph glyph-name="sterling" unicode="&#xa3;" horiz-adv-x="1227" 
d="M610 575l3.00098 -51.002c0 -48.667 -11.5 -95.667 -34.5 -141s-55.833 -86.333 -98.5 -123h692v-260h-1006v260h10c31.333 8 54.833 36.833 70.5 86.5s23.5 101.834 23.5 156.501l-3 72h-164v261h154l-7 185c0 142 41.5 253.5 124.5 334.5s194.167 121.5 333.5 121.5
c148.667 0 263.667 -38.333 345 -115s120.666 -178 117.999 -304l-2 -6h-330c0 56.667 -12.5 98.334 -37.5 125.001s-56.5 40 -94.5 40s-67.333 -17 -88 -51s-31 -82.333 -31 -145l9 -185h325v-261h-312z" />
    <glyph glyph-name="currency" unicode="&#xa4;" horiz-adv-x="1397" 
d="M1061 107c-51.333 -41.333 -107.667 -72.8359 -169 -94.5029s-125.333 -32.5 -192 -32.5c-67.333 0 -131.833 10.833 -193.5 32.5s-117.5 52.834 -167.5 93.501l-129 -132l-141 144l135 137c-32.667 50.667 -57.5 105.834 -74.5 165.501s-25.5 122.167 -25.5 187.5
c0 67.333 9.33301 132 28 194s45.667 119 81 171l-144 147l141 144l142 -145c49.333 36.667 103.5 65 162.5 85s120.833 30 185.5 30c64 0 125.667 -10.167 185 -30.5s114 -49.166 164 -86.499l144 148l142 -145l-148 -151c34 -52 60.333 -108.5 79 -169.5
s28 -124.833 28 -191.5c0 -64.667 -8.5 -126.5 -25.5 -185.5s-41.167 -113.5 -72.5 -163.5l139 -141l-142 -145zM289.999 607.997c0 -122.667 39.667 -225.834 119 -309.501s176.333 -125.5 291 -125.5c113.333 0 209.833 41.833 289.5 125.5s119.5 186.834 119.5 309.501
c0 122 -39.833 224.833 -119.5 308.5s-176.167 125.5 -289.5 125.5c-114.667 0 -211.667 -41.833 -291 -125.5s-119 -186.5 -119 -308.5z" />
    <glyph glyph-name="yen" unicode="&#xa5;" horiz-adv-x="1258" 
d="M628 877h6l244 579h366l-366 -714h213v-210h-295v-100h295v-210h-295v-222h-337v222h-323v210h323v100h-323v210h249l-367 714h367z" />
    <glyph glyph-name="brokenbar" unicode="&#xa6;" horiz-adv-x="524" 
d="M119 -270v795h292v-795h-292zM411 698h-292v758h292v-758z" />
    <glyph glyph-name="section" unicode="&#xa7;" horiz-adv-x="1301" 
d="M1196 500c0 -60 -13.333 -112.335 -40 -157.002s-65 -81.667 -115 -111c46 -35.333 80.5 -76.5 103.5 -123.5s34.5 -103.5 34.5 -169.5c0 -120 -47.833 -213.667 -143.5 -281s-224.834 -101 -387.501 -101c-158.667 0 -290.334 32.667 -395.001 98s-155 170 -151 314l1 6
h329c0 -58 20 -98.667 60 -122s92 -35 156 -35c62.667 0 110.5 10.833 143.5 32.5s49.5 50.834 49.5 87.501c0 37.333 -18.333 67.833 -55 91.5s-105.667 50.167 -207 79.5c-164.667 42.667 -286.667 95 -366 157s-119 149.333 -119 262c0 58.667 13.333 110.834 40 156.501
s65.667 83.5 117 113.5c-47.333 34.667 -82.666 75.5 -105.999 122.5s-35 103.5 -35 169.5c0 116.667 48.5 210.334 145.5 281.001s226.5 106 388.5 106c166 0 295.833 -36.833 389.5 -110.5s138.834 -176.834 135.501 -309.501l-2 -6h-328c0 48.667 -17 88.5 -51 119.5
s-82 46.5 -144 46.5c-66 0 -115 -11.667 -147 -35s-48 -53.333 -48 -90c0 -42 16.5 -74.167 49.5 -96.5s102.833 -47.5 209.5 -75.5c166 -41.333 288.833 -93.5 368.5 -156.5s119.5 -150.833 119.5 -263.5zM597 651.998c-20.667 5.33301 -40.832 11 -60.499 17
s-38.5 12.333 -56.5 19c-16.667 -14 -29 -31.167 -37 -51.5s-12 -43.166 -12 -68.499c0 -47.333 16.167 -83 48.5 -107s102.5 -52.333 210.5 -85l62 -17.5l56 -16.5c18 14 31.833 31.167 41.5 51.5s14.5 43.166 14.5 68.499c0 41.333 -18.833 75.333 -56.5 102
s-107.834 56 -210.501 88z" />
    <glyph glyph-name="dieresis" unicode="&#xa8;" horiz-adv-x="1123" 
d="M953 1252h-290v204h290v-204zM438 1252h-290v204h290v-204z" />
    <glyph glyph-name="copyright" unicode="&#xa9;" horiz-adv-x="1608" 
d="M1108 596l2.00098 -5.99902c2.66699 -100.667 -25.333 -177.167 -84 -229.5s-140.334 -78.5 -245.001 -78.5c-106.667 0 -191.5 35.333 -254.5 106s-94.5 164.334 -94.5 281.001v119c0 115.333 31.5 208.666 94.5 279.999s147.833 107 254.5 107
c104.667 0 186.5 -26.5 245.5 -79.5s87.167 -129.167 84.5 -228.5l-2 -6h-148c0 62.667 -15 108.167 -45 136.5s-75 42.5 -135 42.5c-62.667 0 -110.667 -23 -144 -69s-50 -106.667 -50 -182v-120c0 -76.667 16.667 -137.834 50 -183.501s81.333 -68.5 144 -68.5
c60 0 104.833 13.833 134.5 41.5s44.5 73.5 44.5 137.5h148zM207.001 729.001c0 -176 57.168 -324.167 171.501 -444.5s253.166 -180.5 416.499 -180.5c162.667 0 301.167 60.167 415.5 180.5s171.5 268.5 171.5 444.5c0 175.333 -57.167 322.833 -171.5 442.5
s-252.833 179.5 -415.5 179.5c-164 0 -303 -59.833 -417 -179.5s-171 -267.167 -171 -442.5zM85.002 729.001c0 210 69 387 207 531s305.667 216 503 216c196.667 0 364.167 -72 502.5 -216s207.5 -321 207.5 -531c0 -210.667 -69.333 -388.334 -208 -533.001
s-306 -217 -502 -217c-197.333 0 -365 72.333 -503 217s-207 322.334 -207 533.001z" />
    <glyph glyph-name="ordfeminine" unicode="&#xaa;" horiz-adv-x="904" 
d="M600 706c-5.33301 14 -9.66699 28.8301 -13 44.4971s-6 32.167 -8 49.5c-22 -31.333 -51.5 -57.166 -88.5 -77.499s-81.5 -30.5 -133.5 -30.5c-79.333 0 -140.666 20.333 -183.999 61s-65 96.334 -65 167.001c0 74 28.167 131 84.5 171s138.5 60 246.5 60h137v51
c0 41.333 -9.83301 72.833 -29.5 94.5s-48.5 32.5 -86.5 32.5c-44 0 -78 -8.66699 -102 -26s-36 -41.666 -36 -72.999l-165 13l-1 6c-4 65.333 22.333 119.666 79 162.999s131.667 65 225 65c89.333 0 160.166 -23.667 212.499 -71s78.5 -115.666 78.5 -204.999v-314
c0 -34 2 -65.667 6 -95s10.667 -58 20 -86h-177zM399.999 835.997c34 0 69.001 10 105.001 30s59.667 41.667 71 65v103h-136c-49.333 0 -87.833 -10.667 -115.5 -32s-41.5 -47.333 -41.5 -78c0 -28.667 9.66699 -50.5 29 -65.5s48.666 -22.5 87.999 -22.5z" />
    <glyph glyph-name="guillemotleft" unicode="&#xab;" horiz-adv-x="1054" 
d="M301 550l232 -399h-206l-272 390v19l272 390h206zM724 550l232 -399h-206l-272 390v19l272 390h206z" />
    <glyph glyph-name="logicalnot" unicode="&#xac;" horiz-adv-x="1124" 
d="M960 374h-200v260h-635v171h835v-431z" />
    <glyph glyph-name="uni00AD" unicode="&#xad;" horiz-adv-x="921" 
d="M753 497h-601v261h601v-261z" />
    <glyph glyph-name="registered" unicode="&#xae;" horiz-adv-x="1608" 
d="M85 729c0 210 69 387 207 531s305.667 216 503 216c196.667 0 364.167 -72 502.5 -216s207.5 -321 207.5 -531c0 -210.667 -69.333 -388.334 -208 -533.001s-306 -217 -502 -217c-197.333 0 -365 72.333 -503 217s-207 322.334 -207 533.001zM207 729
c0 -176 57.168 -324.167 171.501 -444.5s253.166 -180.5 416.499 -180.5c162.667 0 301.167 60.167 415.5 180.5s171.5 268.5 171.5 444.5c0 175.333 -57.167 322.833 -171.5 442.5s-252.833 179.5 -415.5 179.5c-164 0 -303 -59.833 -417 -179.5s-171 -267.167 -171 -442.5
zM651.001 653v-337.002h-151v850h281c100.667 0 180 -23 238 -69s87 -111 87 -195c0 -37.333 -9.16699 -70.166 -27.5 -98.499s-44.833 -52.166 -79.5 -71.499c36.667 -20.667 63.167 -49.5 79.5 -86.5s24.5 -80.5 24.5 -130.5v-56c0 -27.333 1.16699 -51.833 3.5 -73.5
s6.83301 -39.5 13.5 -53.5v-16h-155c-6 14 -9.66699 34.5 -11 61.5s-2 54.5 -2 82.5v54c0 47.333 -11.167 82.333 -33.5 105s-58.833 34 -109.5 34h-158zM651.001 786.998h128.001c49.333 0 91.166 10 125.499 30s51.5 48.667 51.5 86c0 48 -13 81.667 -39 101
s-71.333 29 -136 29h-130v-246z" />
    <glyph glyph-name="macron" unicode="&#xaf;" horiz-adv-x="1065" 
d="M895 1285h-734v173h734v-173z" />
    <glyph glyph-name="macron" unicode="&#x2c9;" horiz-adv-x="1065" 
d="M895 1285h-734v173h734v-173z" />
    <glyph glyph-name="degree" unicode="&#xb0;" horiz-adv-x="813" 
d="M125 1197c0 76.667 27.5 142.667 82.5 198s121.167 83 198.5 83c75.333 0 140 -27.667 194 -83s81 -121.333 81 -198c0 -77.333 -27 -142.833 -81 -196.5s-118.667 -80.5 -194 -80.5c-77.333 0 -143.5 26.833 -198.5 80.5s-82.5 119.167 -82.5 196.5zM280 1197
c0 -35.333 12.333 -64.833 37 -88.5s54.334 -35.5 89.001 -35.5c34 0 62.667 11.667 86 35s35 53 35 89s-11.667 66.333 -35 91s-52 37 -86 37c-34.667 0 -64.334 -12.333 -89.001 -37s-37 -55 -37 -91z" />
    <glyph glyph-name="plusminus" unicode="&#xb1;" horiz-adv-x="1103" 
d="M688 994h312v-271h-312v-368h-293v368h-311v271h311v339h293v-339zM946 1h-834v264h834v-264z" />
    <glyph glyph-name="twosuperior" unicode="&#xb2;" horiz-adv-x="856" 
d="M752 667h-637.001v167l313 247c37.333 30.667 61.333 56.667 72 78s16 45.333 16 72c0 23.333 -7.16699 42.833 -21.5 58.5s-36.833 23.5 -67.5 23.5c-32.667 0 -57 -9.5 -73 -28.5s-24 -44.167 -24 -75.5h-219l-2 6c-4 72.667 24.167 134.834 84.5 186.501
s140.833 77.5 241.5 77.5c98.667 0 174.834 -21.833 228.501 -65.5s80.5 -104.834 80.5 -183.501c0 -56 -19.5 -106.167 -58.5 -150.5s-101.167 -99.833 -186.5 -166.5l-86 -73l2 -6h337v-167z" />
    <glyph glyph-name="threesuperior" unicode="&#xb3;" horiz-adv-x="846" 
d="M405 1139c40 0 69.501 7.66699 88.501 23s28.5 37.666 28.5 66.999c0 23.333 -8.16699 43 -24.5 59s-40.833 24 -73.5 24s-57.334 -7 -74.001 -21s-25 -30 -25 -48h-218l-2 6c-4 70 23.833 125.667 83.5 167s135.5 62 227.5 62c102.667 0 184.334 -19.833 245.001 -59.5
s91 -96.167 91 -169.5c0 -36.667 -11.833 -70.167 -35.5 -100.5s-55.834 -53.833 -96.501 -70.5c47.333 -16 83.5 -39.833 108.5 -71.5s37.5 -70.167 37.5 -115.5c0 -75.333 -29.667 -133.5 -89 -174.5s-141 -61.5 -245 -61.5c-103.333 0 -186.833 21.667 -250.5 65
s-93.5 103.333 -89.5 180l2 6h219c0 -27.333 9.5 -48.166 28.5 -62.499s48.167 -21.5 87.5 -21.5c32 0 58.167 7.16699 78.5 21.5s30.5 35.5 30.5 63.5c0 30 -11.5 53.833 -34.5 71.5s-55.833 26.5 -98.5 26.5h-101v134h101z" />
    <glyph glyph-name="acute" unicode="&#xb4;" horiz-adv-x="762" 
d="M302 1478h348l2 -6l-280 -260h-276z" />
    <glyph glyph-name="mu" unicode="&#xb5;" horiz-adv-x="1313" 
d="M470 1082l0.000976562 -619.999c0 -84.667 13.167 -142.334 39.5 -173.001s67.5 -46 123.5 -46c43.333 0 80 7.66699 110 23s53.667 38 71 68v748h337v-1082h-317l-5 53c-28.667 -24.667 -60.667 -43.167 -96 -55.5s-73.333 -18.5 -114 -18.5
c-28.667 0 -55.334 2.83301 -80.001 8.5s-47.667 14.167 -69 25.5v-429h-338v1498h338z" />
    <glyph glyph-name="paragraph" unicode="&#xb6;" horiz-adv-x="1113" 
d="M635 0v520.001h-83c-155.333 0 -276.166 43.167 -362.499 129.5s-129.5 199.166 -129.5 338.499c0 138 43.167 250.5 129.5 337.5s207.166 130.5 362.499 130.5h422v-1456h-339z" />
    <glyph glyph-name="periodcentered" unicode="&#xb7;" horiz-adv-x="657" 
d="M496 539h-338v284h338v-284z" />
    <glyph glyph-name="cedilla" unicode="&#xb8;" horiz-adv-x="569" 
d="M373 10l-10.001 -61.001c42.667 -7.33301 78.334 -24.666 107.001 -51.999s43 -67.666 43 -120.999c0 -76 -32.333 -136.333 -97 -181s-157 -67 -277 -67l-7 186c27.333 0 48.833 6.33301 64.5 19s23.5 32 23.5 58c0 25.333 -10.167 43.166 -30.5 53.499
s-54.833 16.833 -103.5 19.5l31 146h256z" />
    <glyph glyph-name="onesuperior" unicode="&#xb9;" horiz-adv-x="579" 
d="M467 666h-228v619h-127v170l355 23v-812z" />
    <glyph glyph-name="ordmasculine" unicode="&#xba;" horiz-adv-x="938" 
d="M117 1142c0 98.667 31.334 179.167 94.001 241.5s146.667 93.5 252 93.5s189.5 -31.167 252.5 -93.5s94.5 -142.833 94.5 -241.5v-116c0 -99.333 -31.333 -179.833 -94 -241.5s-146.334 -92.5 -251.001 -92.5c-106 0 -190.5 30.833 -253.5 92.5
s-94.5 142.167 -94.5 241.5v116zM292.001 1026c0 -56.667 14.667 -102.167 44 -136.5s72.333 -51.5 129 -51.5c54.667 0 96.667 17.167 126 51.5s44 79.833 44 136.5v116c0 55.333 -14.833 100.333 -44.5 135s-72.167 52 -127.5 52c-56 0 -98.5 -17.333 -127.5 -52
s-43.5 -79.667 -43.5 -135v-116z" />
    <glyph glyph-name="guillemotright" unicode="&#xbb;" horiz-adv-x="1054" 
d="M262 950l272 -390v-19l-272 -390h-207l232 399l-232 400h207zM697 950l272 -390v-19l-272 -390h-207l232 399l-232 400h207z" />
    <glyph glyph-name="onequarter" unicode="&#xbc;" horiz-adv-x="1441" 
d="M445 664h-228v619h-127v170l355 23v-812zM361 117l-157 79l711 1138l157 -79zM1326 302h89v-168h-89v-134h-230v134h-407l-16 137l423 527v3h230v-499zM908 307l3 -5h185v234l-6 2l-14 -20z" />
    <glyph glyph-name="onehalf" unicode="&#xbd;" horiz-adv-x="1473" 
d="M350 117l-157 79l711 1138l157 -79zM424 664h-228v619h-127v170l355 23v-812zM1431 0h-637.001v167l313 247c37.333 30.667 61.333 56.667 72 78s16 45.333 16 72c0 23.333 -7.16699 42.833 -21.5 58.5s-36.833 23.5 -67.5 23.5c-32.667 0 -57 -9.5 -73 -28.5
s-24 -44.167 -24 -75.5h-219l-2 6c-4 72.667 24.167 134.834 84.5 186.501s140.833 77.5 241.5 77.5c98.667 0 174.834 -21.833 228.501 -65.5s80.5 -104.834 80.5 -183.501c0 -56 -19.5 -106.167 -58.5 -150.5s-101.167 -99.833 -186.5 -166.5l-86 -73l2 -6h337v-167z" />
    <glyph glyph-name="threequarters" unicode="&#xbe;" horiz-adv-x="1665" 
d="M592 117l-157 79l711 1138l157 -79zM1512 302h89v-168h-89v-134h-230v134h-407l-16 137l423 527v3h230v-499zM1094 307l3 -5h185v234l-6 2l-14 -20zM384 1140c40 0 69.501 7.66699 88.501 23s28.5 37.666 28.5 66.999c0 23.333 -8.16699 43 -24.5 59s-40.833 24 -73.5 24
s-57.334 -7 -74.001 -21s-25 -30 -25 -48h-218l-2 6c-4 70 23.833 125.667 83.5 167s135.5 62 227.5 62c102.667 0 184.334 -19.833 245.001 -59.5s91 -96.167 91 -169.5c0 -36.667 -11.833 -70.167 -35.5 -100.5s-55.834 -53.833 -96.501 -70.5
c47.333 -16 83.5 -39.833 108.5 -71.5s37.5 -70.167 37.5 -115.5c0 -75.333 -29.667 -133.5 -89 -174.5s-141 -61.5 -245 -61.5c-103.333 0 -186.833 21.667 -250.5 65s-93.5 103.333 -89.5 180l2 6h219c0 -27.333 9.5 -48.166 28.5 -62.499s48.167 -21.5 87.5 -21.5
c32 0 58.167 7.16699 78.5 21.5s30.5 35.5 30.5 63.5c0 30 -11.5 53.833 -34.5 71.5s-55.833 26.5 -98.5 26.5h-101v134h101z" />
    <glyph glyph-name="questiondown" unicode="&#xbf;" horiz-adv-x="1047" 
d="M766 666c-1.33301 -93.333 -18.3359 -163.332 -51.0029 -209.999s-92 -100 -178 -160c-45.333 -28.667 -80.666 -63.667 -105.999 -105s-38 -88.666 -38 -141.999c0 -56 14.833 -100.667 44.5 -134s72.834 -50 129.501 -50c44 0 80.833 13.667 110.5 41s45.5 68 47.5 122
h329l2 -6c1.33301 -138.667 -43.167 -242.834 -133.5 -312.501s-208.833 -104.5 -355.5 -104.5c-160 0 -285.333 40 -376 120s-136 188 -136 324c0 82.667 24.833 159 74.5 229s112.834 125.333 189.501 166c42 27.333 70.667 57.166 86 89.499s23 76.5 23 132.5h338z
M428.997 1082h336v-270h-336v270z" />
    <glyph glyph-name="Agrave" unicode="&#xc0;" horiz-adv-x="1300" 
d="M888 283h-459l-82 -283h-340l470 1456h363l471 -1456h-340zM504 543h309l-152 521h-6zM827 1559h-275l-282 260l2 6h347z" />
    <glyph glyph-name="Aacute" unicode="&#xc1;" horiz-adv-x="1300" 
d="M888 283h-459l-82 -283h-340l470 1456h363l471 -1456h-340zM504 543h309l-152 521h-6zM676 1827h348l2 -6l-280 -260h-276z" />
    <glyph glyph-name="Acircumflex" unicode="&#xc2;" horiz-adv-x="1300" 
d="M888 283h-459l-82 -283h-340l470 1456h363l471 -1456h-340zM504 543h309l-152 521h-6zM1049 1609v-22h-265l-137 126l-136 -126h-260v26l300 240h193z" />
    <glyph glyph-name="Atilde" unicode="&#xc3;" horiz-adv-x="1300" 
d="M888 283h-459l-82 -283h-340l470 1456h363l471 -1456h-340zM504 543h309l-152 521h-6zM1035 1861c0 -64 -20.002 -118.833 -60.002 -164.5s-90 -68.5 -150 -68.5c-46.667 0 -101.5 14 -164.5 42s-111.833 42 -146.5 42c-22 0 -40.333 -10.833 -55 -32.5
s-22 -47.5 -22 -77.5l-178 50c0 62.667 19.833 117.167 59.5 163.5s89.5 69.5 149.5 69.5c37.333 0 89.833 -13.833 157.5 -41.5s118.834 -41.5 153.501 -41.5c20.667 0 38.834 10.667 54.501 32s23.5 47.333 23.5 78z" />
    <glyph glyph-name="Adieresis" unicode="&#xc4;" horiz-adv-x="1300" 
d="M888 283h-459l-82 -283h-340l470 1456h363l471 -1456h-340zM504 543h309l-152 521h-6zM1050 1601h-290v204h290v-204zM535 1601h-290v204h290v-204z" />
    <glyph glyph-name="Aring" unicode="&#xc5;" horiz-adv-x="1300" 
d="M888 283h-459l-82 -283h-340l470 1456h363l471 -1456h-340zM504 543h309l-152 521h-6zM435 1741c0 54 20.667 99.667 62 137s92.333 56 153 56c59.333 0 109.333 -18.667 150 -56s61 -83 61 -137c0 -54.667 -20.333 -99.834 -61 -135.501s-90.667 -53.5 -150 -53.5
c-61.333 0 -112.5 17.833 -153.5 53.5s-61.5 80.834 -61.5 135.501zM556 1741c0 -28 8.83301 -50.667 26.5 -68s40.167 -26 67.5 -26c26.667 0 48.167 8.5 64.5 25.5s24.5 39.833 24.5 68.5s-8.16699 51.834 -24.5 69.501s-37.833 26.5 -64.5 26.5
c-27.333 0 -49.833 -8.83301 -67.5 -26.5s-26.5 -40.834 -26.5 -69.501z" />
    <glyph glyph-name="AE" unicode="&#xc6;" horiz-adv-x="1926" 
d="M1851 0h-897l-14 329h-382l-152 -329h-390l735 1456h1039v-264h-549l13 -316h455v-264h-444l15 -348h571v-264zM683 599h246l-20 473l-6 1z" />
    <glyph glyph-name="Ccedilla" unicode="&#xc7;" horiz-adv-x="1316" 
d="M1248 511l2.00195 -6c-6.66699 -170.667 -57.167 -301 -151.5 -391s-231.166 -135 -410.499 -135c-180 0 -326.333 55.333 -439 166s-169 254.334 -169 431.001v304c0 176 54.167 319.5 162.5 430.5s249.166 166.5 422.499 166.5c184 0 324.667 -46.333 422 -139
s152.333 -224.334 165 -395.001l-2 -6h-329c-4.66699 94.667 -25.834 165 -63.501 211s-101.834 69 -192.501 69c-76.667 0 -137 -30.833 -181 -92.5s-66 -142.5 -66 -242.5v-306c0 -100.667 24 -182 72 -244s114 -93 198 -93c81.333 0 139 21.667 173 65
s53.333 112.333 58 207h329zM784.002 10l-10.001 -61.001c42.667 -7.33301 78.334 -24.666 107.001 -51.999s43 -67.666 43 -120.999c0 -76 -32.333 -136.333 -97 -181s-157 -67 -277 -67l-7 186c27.333 0 48.833 6.33301 64.5 19s23.5 32 23.5 58
c0 25.333 -10.167 43.166 -30.5 53.499s-54.833 16.833 -103.5 19.5l31 146h256z" />
    <glyph glyph-name="Egrave" unicode="&#xc8;" horiz-adv-x="1165" 
d="M1024 623h-571v-363h673v-260h-1012v1456h1014v-260h-675v-313h571v-260zM771 1559h-275l-282 260l2 6h347z" />
    <glyph glyph-name="Eacute" unicode="&#xc9;" horiz-adv-x="1165" 
d="M1024 623h-571v-363h673v-260h-1012v1456h1014v-260h-675v-313h571v-260zM620 1827h348l2 -6l-280 -260h-276z" />
    <glyph glyph-name="Ecircumflex" unicode="&#xca;" horiz-adv-x="1165" 
d="M1024 623h-571v-363h673v-260h-1012v1456h1014v-260h-675v-313h571v-260zM993 1609v-22h-265l-137 126l-136 -126h-260v26l300 240h193z" />
    <glyph glyph-name="Edieresis" unicode="&#xcb;" horiz-adv-x="1165" 
d="M1024 623h-571v-363h673v-260h-1012v1456h1014v-260h-675v-313h571v-260zM994 1601h-290v204h290v-204zM479 1601h-290v204h290v-204z" />
    <glyph glyph-name="Igrave" unicode="&#xcc;" horiz-adv-x="611" 
d="M474 0h-337v1456h337v-1456zM487 1559h-275l-282 260l2 6h347z" />
    <glyph glyph-name="Iacute" unicode="&#xcd;" horiz-adv-x="611" 
d="M474 0h-337v1456h337v-1456zM334 1827h348l2 -6l-280 -260h-276z" />
    <glyph glyph-name="Icircumflex" unicode="&#xce;" horiz-adv-x="611" 
d="M474 0h-337v1456h337v-1456zM709 1609v-22h-265l-137 126l-136 -126h-260v26l300 240h193z" />
    <glyph glyph-name="Idieresis" unicode="&#xcf;" horiz-adv-x="611" 
d="M474 0h-337v1456h337v-1456zM710 1601h-290v204h290v-204zM195 1601h-290v204h290v-204z" />
    <glyph glyph-name="Eth" unicode="&#xd0;" horiz-adv-x="1368" 
d="M144 0v647h-119v191h119v618h526c171.333 0 314.666 -55.833 429.999 -167.5s173 -254.834 173 -429.501v-262c0 -175.333 -57.667 -318.666 -173 -429.999s-258.666 -167 -429.999 -167h-526zM711 647h-228v-387h164c90 0 160.333 30.833 211 92.5s76 143.167 76 244.5
v264c0 100.667 -25.333 181.667 -76 243s-121 92 -211 92h-164v-358h228v-191z" />
    <glyph glyph-name="Ntilde" unicode="&#xd1;" horiz-adv-x="1444" 
d="M1329 0h-337l-533 928l-6 -2v-926h-339v1456h339l533 -928l6 2v926h337v-1456zM1110 1861c0 -64 -20.002 -118.833 -60.002 -164.5s-90 -68.5 -150 -68.5c-46.667 0 -101.5 14 -164.5 42s-111.833 42 -146.5 42c-22 0 -40.333 -10.833 -55 -32.5s-22 -47.5 -22 -77.5
l-178 50c0 62.667 19.833 117.167 59.5 163.5s89.5 69.5 149.5 69.5c37.333 0 89.833 -13.833 157.5 -41.5s118.834 -41.5 153.501 -41.5c20.667 0 38.834 10.667 54.501 32s23.5 47.333 23.5 78z" />
    <glyph glyph-name="Ograve" unicode="&#xd2;" horiz-adv-x="1400" 
d="M1318 597c0 -179.333 -56.833 -327.166 -170.5 -443.499s-262.167 -174.5 -445.5 -174.5c-184.667 0 -334.334 58.167 -449.001 174.5s-172 264.166 -172 443.499v262c0 178.667 57.167 326.334 171.5 443.001s263.5 175 447.5 175
c182.667 0 331.334 -58.333 446.001 -175s172 -264.334 172 -443.001v-262zM981 861c0 104 -24.502 189.333 -73.502 256s-118.167 100 -207.5 100c-91.333 0 -161.166 -33.167 -209.499 -99.5s-72.5 -151.833 -72.5 -256.5v-264c0 -105.333 24.5 -191.333 73.5 -258
s119.167 -100 210.5 -100c88.667 0 157.334 33.333 206.001 100s73 152.667 73 258v264zM879.998 1580h-275l-282 260l2 6h347z" />
    <glyph glyph-name="Oacute" unicode="&#xd3;" horiz-adv-x="1400" 
d="M1318 597c0 -179.333 -56.833 -327.166 -170.5 -443.499s-262.167 -174.5 -445.5 -174.5c-184.667 0 -334.334 58.167 -449.001 174.5s-172 264.166 -172 443.499v262c0 178.667 57.167 326.334 171.5 443.001s263.5 175 447.5 175
c182.667 0 331.334 -58.333 446.001 -175s172 -264.334 172 -443.001v-262zM981 861c0 104 -24.502 189.333 -73.502 256s-118.167 100 -207.5 100c-91.333 0 -161.166 -33.167 -209.499 -99.5s-72.5 -151.833 -72.5 -256.5v-264c0 -105.333 24.5 -191.333 73.5 -258
s119.167 -100 210.5 -100c88.667 0 157.334 33.333 206.001 100s73 152.667 73 258v264zM728.998 1848h348l2 -6l-280 -260h-276z" />
    <glyph glyph-name="Ocircumflex" unicode="&#xd4;" horiz-adv-x="1400" 
d="M1318 597c0 -179.333 -56.833 -327.166 -170.5 -443.499s-262.167 -174.5 -445.5 -174.5c-184.667 0 -334.334 58.167 -449.001 174.5s-172 264.166 -172 443.499v262c0 178.667 57.167 326.334 171.5 443.001s263.5 175 447.5 175
c182.667 0 331.334 -58.333 446.001 -175s172 -264.334 172 -443.001v-262zM981 861c0 104 -24.502 189.333 -73.502 256s-118.167 100 -207.5 100c-91.333 0 -161.166 -33.167 -209.499 -99.5s-72.5 -151.833 -72.5 -256.5v-264c0 -105.333 24.5 -191.333 73.5 -258
s119.167 -100 210.5 -100c88.667 0 157.334 33.333 206.001 100s73 152.667 73 258v264zM1102 1630v-22h-265l-137 126l-136 -126h-260v26l300 240h193z" />
    <glyph glyph-name="Otilde" unicode="&#xd5;" horiz-adv-x="1400" 
d="M1318 597c0 -179.333 -56.833 -327.166 -170.5 -443.499s-262.167 -174.5 -445.5 -174.5c-184.667 0 -334.334 58.167 -449.001 174.5s-172 264.166 -172 443.499v262c0 178.667 57.167 326.334 171.5 443.001s263.5 175 447.5 175
c182.667 0 331.334 -58.333 446.001 -175s172 -264.334 172 -443.001v-262zM981 861c0 104 -24.502 189.333 -73.502 256s-118.167 100 -207.5 100c-91.333 0 -161.166 -33.167 -209.499 -99.5s-72.5 -151.833 -72.5 -256.5v-264c0 -105.333 24.5 -191.333 73.5 -258
s119.167 -100 210.5 -100c88.667 0 157.334 33.333 206.001 100s73 152.667 73 258v264zM1088 1882c0 -64 -20.002 -118.833 -60.002 -164.5s-90 -68.5 -150 -68.5c-46.667 0 -101.5 14 -164.5 42s-111.833 42 -146.5 42c-22 0 -40.333 -10.833 -55 -32.5
s-22 -47.5 -22 -77.5l-178 50c0 62.667 19.833 117.167 59.5 163.5s89.5 69.5 149.5 69.5c37.333 0 89.833 -13.833 157.5 -41.5s118.834 -41.5 153.501 -41.5c20.667 0 38.834 10.667 54.501 32s23.5 47.333 23.5 78z" />
    <glyph glyph-name="Odieresis" unicode="&#xd6;" horiz-adv-x="1400" 
d="M1318 597c0 -179.333 -56.833 -327.166 -170.5 -443.499s-262.167 -174.5 -445.5 -174.5c-184.667 0 -334.334 58.167 -449.001 174.5s-172 264.166 -172 443.499v262c0 178.667 57.167 326.334 171.5 443.001s263.5 175 447.5 175
c182.667 0 331.334 -58.333 446.001 -175s172 -264.334 172 -443.001v-262zM981 861c0 104 -24.502 189.333 -73.502 256s-118.167 100 -207.5 100c-91.333 0 -161.166 -33.167 -209.499 -99.5s-72.5 -151.833 -72.5 -256.5v-264c0 -105.333 24.5 -191.333 73.5 -258
s119.167 -100 210.5 -100c88.667 0 157.334 33.333 206.001 100s73 152.667 73 258v264zM1103 1622h-290v204h290v-204zM587.998 1622h-290v204h290v-204z" />
    <glyph glyph-name="multiply" unicode="&#xd7;" horiz-adv-x="1083" 
d="M53 381l299 305l-299 306l193 183l293 -299l293 299l193 -183l-300 -306l300 -305l-193 -183l-293 298l-293 -298z" />
    <glyph glyph-name="Oslash" unicode="&#xd8;" horiz-adv-x="1416" 
d="M1326 597c0 -179.333 -56.833 -327.167 -170.5 -443.5s-262.167 -174.5 -445.5 -174.5c-52 0 -101.667 5 -149 15s-91.666 24.667 -132.999 44l-77 -133h-140l112 194c-74.667 55.333 -132.334 126.166 -173.001 212.499s-61 181.5 -61 285.5v262
c0 178.667 57.167 326.334 171.5 443.001s263.5 175 447.5 175c67.333 0 130.833 -8.66699 190.5 -26s114.167 -42 163.5 -74l82 141h140l-127 -219c54 -56 95.667 -121.5 125 -196.5s44 -156.167 44 -243.5v-262zM426 596.999c0 -44 4.33008 -85 12.9971 -123
s21.334 -70.333 38.001 -97l6 -1l430 744c-24.667 30.667 -54.167 54.5 -88.5 71.5s-73.166 25.5 -116.499 25.5c-91.333 0 -161.166 -33.167 -209.499 -99.5s-72.5 -151.833 -72.5 -256.5v-264zM988.997 860.999c0 20.667 -1.16797 41.166 -3.50098 61.499
s-5.5 37.833 -9.5 52.5l-6 1l-404 -698c20 -13.333 42 -23.166 66 -29.499s50 -9.5 78 -9.5c88.667 0 157.334 33.333 206.001 100s73 152.667 73 258v264z" />
    <glyph glyph-name="Ugrave" unicode="&#xd9;" horiz-adv-x="1417" 
d="M1309 1456l0.000976562 -954c0 -166 -55.167 -294.667 -165.5 -386s-254.833 -137 -433.5 -137c-180.667 0 -326.334 45.667 -437.001 137s-166 220 -166 386v954h339v-954c0 -89.333 23 -155.5 69 -198.5s111 -64.5 195 -64.5c83.333 0 147.5 21.333 192.5 64
s67.5 109 67.5 199v954h339zM888.001 1559h-275l-282 260l2 6h347z" />
    <glyph glyph-name="Uacute" unicode="&#xda;" horiz-adv-x="1417" 
d="M1309 1456l0.000976562 -954c0 -166 -55.167 -294.667 -165.5 -386s-254.833 -137 -433.5 -137c-180.667 0 -326.334 45.667 -437.001 137s-166 220 -166 386v954h339v-954c0 -89.333 23 -155.5 69 -198.5s111 -64.5 195 -64.5c83.333 0 147.5 21.333 192.5 64
s67.5 109 67.5 199v954h339zM737.001 1827h348l2 -6l-280 -260h-276z" />
    <glyph glyph-name="Ucircumflex" unicode="&#xdb;" horiz-adv-x="1417" 
d="M1309 1456l0.000976562 -954c0 -166 -55.167 -294.667 -165.5 -386s-254.833 -137 -433.5 -137c-180.667 0 -326.334 45.667 -437.001 137s-166 220 -166 386v954h339v-954c0 -89.333 23 -155.5 69 -198.5s111 -64.5 195 -64.5c83.333 0 147.5 21.333 192.5 64
s67.5 109 67.5 199v954h339zM1110 1609v-22h-265l-137 126l-136 -126h-260v26l300 240h193z" />
    <glyph glyph-name="Udieresis" unicode="&#xdc;" horiz-adv-x="1417" 
d="M1309 1456l0.000976562 -954c0 -166 -55.167 -294.667 -165.5 -386s-254.833 -137 -433.5 -137c-180.667 0 -326.334 45.667 -437.001 137s-166 220 -166 386v954h339v-954c0 -89.333 23 -155.5 69 -198.5s111 -64.5 195 -64.5c83.333 0 147.5 21.333 192.5 64
s67.5 109 67.5 199v954h339zM1111 1601h-290v204h290v-204zM596.001 1601h-290v204h290v-204z" />
    <glyph glyph-name="Yacute" unicode="&#xdd;" horiz-adv-x="1310" 
d="M651 820h6l290 636h367l-495 -944v-512h-337v529l-485 927h365zM693 1827h348l2 -6l-280 -260h-276z" />
    <glyph glyph-name="Thorn" unicode="&#xde;" horiz-adv-x="1266" 
d="M455 1456l0.00195312 -258h198c177.333 0 315.166 -42.167 413.499 -126.5s147.5 -195.5 147.5 -333.5s-49.333 -249.167 -148 -333.5s-236.334 -126.5 -413.001 -126.5h-198v-278h-339v1456h339zM455.002 938v-399.999h198c74.667 0 130.334 18.667 167.001 56
s55 84.666 55 141.999c0 58 -18.333 106.167 -55 144.5s-92.334 57.5 -167.001 57.5h-198z" />
    <glyph glyph-name="germandbls" unicode="&#xdf;" horiz-adv-x="1330" 
d="M472 0l-338 0.00195312v1112c0 150.667 44.667 266.5 134 347.5s215 121.5 377 121.5c126.667 0 232.5 -33.5 317.5 -100.5s127.5 -160.167 127.5 -279.5c0 -68 -15.833 -132.167 -47.5 -192.5s-47.5 -115.833 -47.5 -166.5c0 -28.667 46 -90 138 -184
s138 -187.667 138 -281c0 -133.333 -40 -233 -120 -299s-199 -99 -357 -99c-53.333 0 -104.833 4.16699 -154.5 12.5s-87.5 20.166 -113.5 35.499l59 256c24 -12.667 53.833 -23.167 89.5 -31.5s76.167 -12.5 121.5 -12.5c40.667 0 74 11 100 33s39 52.667 39 92
c0 43.333 -46.167 108.166 -138.5 194.499s-138.5 175.833 -138.5 268.5c0 64 15.667 127.5 47 190.5s47 119.5 47 169.5c0 35.333 -14.333 66.666 -43 93.999s-61 41 -97 41c-41.333 0 -75 -19.667 -101 -59s-39 -91.666 -39 -156.999v-1106z" />
    <glyph glyph-name="agrave" unicode="&#xe0;" horiz-adv-x="1086" 
d="M718 1c-9.33301 17.333 -17.834 36.668 -25.501 58.001s-14.167 43.333 -19.5 66c-32 -44.667 -70.667 -80.167 -116 -106.5s-100.333 -39.5 -165 -39.5c-102.667 0 -186.167 29.667 -250.5 89s-96.5 138.333 -96.5 237c0 107.333 40.167 190.166 120.5 248.499
s202.5 87.5 366.5 87.5h123v77c0 46 -10.833 81.333 -32.5 106s-55.167 37 -100.5 37c-38.667 0 -67.5 -9.16699 -86.5 -27.5s-28.5 -46.833 -28.5 -85.5l-327 1l-2 6c-4.66699 98.667 36.333 181.167 123 247.5s201.334 99.5 344.001 99.5
c133.333 0 241.5 -33.333 324.5 -100s124.5 -162 124.5 -286v-408c0 -58 4.83301 -111.667 14.5 -161s24.167 -98.333 43.5 -147zM494.999 220.002c33.333 0 63.999 6.66797 91.999 20.001s50.667 30.666 68 51.999v169h-120c-53.333 0 -92.166 -13 -116.499 -39
s-36.5 -59 -36.5 -99c0 -30.667 10.5 -55.5 31.5 -74.5s48.167 -28.5 81.5 -28.5zM717.998 1237h-275l-282 260l2 6h347z" />
    <glyph glyph-name="aacute" unicode="&#xe1;" horiz-adv-x="1086" 
d="M718 1c-9.33301 17.333 -17.834 36.668 -25.501 58.001s-14.167 43.333 -19.5 66c-32 -44.667 -70.667 -80.167 -116 -106.5s-100.333 -39.5 -165 -39.5c-102.667 0 -186.167 29.667 -250.5 89s-96.5 138.333 -96.5 237c0 107.333 40.167 190.166 120.5 248.499
s202.5 87.5 366.5 87.5h123v77c0 46 -10.833 81.333 -32.5 106s-55.167 37 -100.5 37c-38.667 0 -67.5 -9.16699 -86.5 -27.5s-28.5 -46.833 -28.5 -85.5l-327 1l-2 6c-4.66699 98.667 36.333 181.167 123 247.5s201.334 99.5 344.001 99.5
c133.333 0 241.5 -33.333 324.5 -100s124.5 -162 124.5 -286v-408c0 -58 4.83301 -111.667 14.5 -161s24.167 -98.333 43.5 -147zM494.999 220.002c33.333 0 63.999 6.66797 91.999 20.001s50.667 30.666 68 51.999v169h-120c-53.333 0 -92.166 -13 -116.499 -39
s-36.5 -59 -36.5 -99c0 -30.667 10.5 -55.5 31.5 -74.5s48.167 -28.5 81.5 -28.5zM566.998 1505h348l2 -6l-280 -260h-276z" />
    <glyph glyph-name="acircumflex" unicode="&#xe2;" horiz-adv-x="1086" 
d="M718 1c-9.33301 17.333 -17.834 36.668 -25.501 58.001s-14.167 43.333 -19.5 66c-32 -44.667 -70.667 -80.167 -116 -106.5s-100.333 -39.5 -165 -39.5c-102.667 0 -186.167 29.667 -250.5 89s-96.5 138.333 -96.5 237c0 107.333 40.167 190.166 120.5 248.499
s202.5 87.5 366.5 87.5h123v77c0 46 -10.833 81.333 -32.5 106s-55.167 37 -100.5 37c-38.667 0 -67.5 -9.16699 -86.5 -27.5s-28.5 -46.833 -28.5 -85.5l-327 1l-2 6c-4.66699 98.667 36.333 181.167 123 247.5s201.334 99.5 344.001 99.5
c133.333 0 241.5 -33.333 324.5 -100s124.5 -162 124.5 -286v-408c0 -58 4.83301 -111.667 14.5 -161s24.167 -98.333 43.5 -147zM494.999 220.002c33.333 0 63.999 6.66797 91.999 20.001s50.667 30.666 68 51.999v169h-120c-53.333 0 -92.166 -13 -116.499 -39
s-36.5 -59 -36.5 -99c0 -30.667 10.5 -55.5 31.5 -74.5s48.167 -28.5 81.5 -28.5zM939.998 1287v-22h-265l-137 126l-136 -126h-260v26l300 240h193z" />
    <glyph glyph-name="atilde" unicode="&#xe3;" horiz-adv-x="1086" 
d="M718 1c-9.33301 17.333 -17.834 36.668 -25.501 58.001s-14.167 43.333 -19.5 66c-32 -44.667 -70.667 -80.167 -116 -106.5s-100.333 -39.5 -165 -39.5c-102.667 0 -186.167 29.667 -250.5 89s-96.5 138.333 -96.5 237c0 107.333 40.167 190.166 120.5 248.499
s202.5 87.5 366.5 87.5h123v77c0 46 -10.833 81.333 -32.5 106s-55.167 37 -100.5 37c-38.667 0 -67.5 -9.16699 -86.5 -27.5s-28.5 -46.833 -28.5 -85.5l-327 1l-2 6c-4.66699 98.667 36.333 181.167 123 247.5s201.334 99.5 344.001 99.5
c133.333 0 241.5 -33.333 324.5 -100s124.5 -162 124.5 -286v-408c0 -58 4.83301 -111.667 14.5 -161s24.167 -98.333 43.5 -147zM494.999 220.002c33.333 0 63.999 6.66797 91.999 20.001s50.667 30.666 68 51.999v169h-120c-53.333 0 -92.166 -13 -116.499 -39
s-36.5 -59 -36.5 -99c0 -30.667 10.5 -55.5 31.5 -74.5s48.167 -28.5 81.5 -28.5zM925.998 1539c0 -64 -20.002 -118.833 -60.002 -164.5s-90 -68.5 -150 -68.5c-46.667 0 -101.5 14 -164.5 42s-111.833 42 -146.5 42c-22 0 -40.333 -10.833 -55 -32.5s-22 -47.5 -22 -77.5
l-178 50c0 62.667 19.833 117.167 59.5 163.5s89.5 69.5 149.5 69.5c37.333 0 89.833 -13.833 157.5 -41.5s118.834 -41.5 153.501 -41.5c20.667 0 38.834 10.667 54.501 32s23.5 47.333 23.5 78z" />
    <glyph glyph-name="adieresis" unicode="&#xe4;" horiz-adv-x="1086" 
d="M718 1c-9.33301 17.333 -17.834 36.668 -25.501 58.001s-14.167 43.333 -19.5 66c-32 -44.667 -70.667 -80.167 -116 -106.5s-100.333 -39.5 -165 -39.5c-102.667 0 -186.167 29.667 -250.5 89s-96.5 138.333 -96.5 237c0 107.333 40.167 190.166 120.5 248.499
s202.5 87.5 366.5 87.5h123v77c0 46 -10.833 81.333 -32.5 106s-55.167 37 -100.5 37c-38.667 0 -67.5 -9.16699 -86.5 -27.5s-28.5 -46.833 -28.5 -85.5l-327 1l-2 6c-4.66699 98.667 36.333 181.167 123 247.5s201.334 99.5 344.001 99.5
c133.333 0 241.5 -33.333 324.5 -100s124.5 -162 124.5 -286v-408c0 -58 4.83301 -111.667 14.5 -161s24.167 -98.333 43.5 -147zM494.999 220.002c33.333 0 63.999 6.66797 91.999 20.001s50.667 30.666 68 51.999v169h-120c-53.333 0 -92.166 -13 -116.499 -39
s-36.5 -59 -36.5 -99c0 -30.667 10.5 -55.5 31.5 -74.5s48.167 -28.5 81.5 -28.5zM942.998 1279h-290v204h290v-204zM427.998 1279h-290v204h290v-204z" />
    <glyph glyph-name="aring" unicode="&#xe5;" horiz-adv-x="1086" 
d="M718 1c-9.33301 17.333 -17.834 36.668 -25.501 58.001s-14.167 43.333 -19.5 66c-32 -44.667 -70.667 -80.167 -116 -106.5s-100.333 -39.5 -165 -39.5c-102.667 0 -186.167 29.667 -250.5 89s-96.5 138.333 -96.5 237c0 107.333 40.167 190.166 120.5 248.499
s202.5 87.5 366.5 87.5h123v77c0 46 -10.833 81.333 -32.5 106s-55.167 37 -100.5 37c-38.667 0 -67.5 -9.16699 -86.5 -27.5s-28.5 -46.833 -28.5 -85.5l-327 1l-2 6c-4.66699 98.667 36.333 181.167 123 247.5s201.334 99.5 344.001 99.5
c133.333 0 241.5 -33.333 324.5 -100s124.5 -162 124.5 -286v-408c0 -58 4.83301 -111.667 14.5 -161s24.167 -98.333 43.5 -147zM494.999 220.002c33.333 0 63.999 6.66797 91.999 20.001s50.667 30.666 68 51.999v169h-120c-53.333 0 -92.166 -13 -116.499 -39
s-36.5 -59 -36.5 -99c0 -30.667 10.5 -55.5 31.5 -74.5s48.167 -28.5 81.5 -28.5zM325.998 1419c0 54 20.667 99.667 62 137s92.333 56 153 56c59.333 0 109.333 -18.667 150 -56s61 -83 61 -137c0 -54.667 -20.333 -99.834 -61 -135.501s-90.667 -53.5 -150 -53.5
c-61.333 0 -112.5 17.833 -153.5 53.5s-61.5 80.834 -61.5 135.501zM446.998 1419c0 -28 8.83301 -50.667 26.5 -68s40.167 -26 67.5 -26c26.667 0 48.167 8.5 64.5 25.5s24.5 39.833 24.5 68.5s-8.16699 51.834 -24.5 69.501s-37.833 26.5 -64.5 26.5
c-27.333 0 -49.833 -8.83301 -67.5 -26.5s-26.5 -40.834 -26.5 -69.501z" />
    <glyph glyph-name="ae" unicode="&#xe6;" horiz-adv-x="1730" 
d="M1238 -21c-83.333 0 -157.836 12.498 -223.503 37.498s-121.167 60.833 -166.5 107.5c-40 -42.667 -92.333 -77.5 -157 -104.5s-140.334 -40.5 -227.001 -40.5c-135.333 0 -239.666 30.833 -312.999 92.5s-110 145.834 -110 252.501c0 106 44.167 187.667 132.5 245
s217.166 86 386.499 86h158v46c0 44 -11.667 78.5 -35 103.5s-56.333 37.5 -99 37.5c-46.667 0 -83.167 -9.66699 -109.5 -29s-39.5 -43.666 -39.5 -72.999l-328 18l-1 6c-4.66699 98 37.5 178.833 126.5 242.5s207.5 95.5 355.5 95.5c64.667 0 124.334 -7.5 179.001 -22.5
s102.334 -37.167 143.001 -66.5c40.667 28.667 87.5 50.667 140.5 66s111.833 23 176.5 23c140.667 0 252.167 -44.167 334.5 -132.5s123.5 -207.5 123.5 -357.5v-177h-619l-2 -6c2.66699 -58.667 21.834 -105 57.501 -139s89.834 -51 162.501 -51
c58.667 0 108.167 5.33301 148.5 16s85.833 27.667 136.5 51l81 -206c-44 -34 -103.5 -62.667 -178.5 -86s-152.833 -35 -233.5 -35zM527.997 210.998c32.667 0 66.8311 8 102.498 24s64.834 35.333 87.501 58v141c-0.666992 2.66699 -1 5.16699 -1 7.5v9.5h-155
c-58 0 -103.167 -12.833 -135.5 -38.5s-48.5 -56.5 -48.5 -92.5c0 -34.667 12.333 -61.5 37 -80.5s62.334 -28.5 113.001 -28.5zM1226.99 841.998c-57.333 0 -98.499 -16.833 -123.499 -50.5s-38.833 -80.5 -41.5 -140.5l2 -5h292v26c0 53.333 -11.333 95 -34 125
s-54.334 45 -95.001 45z" />
    <glyph glyph-name="ccedilla" unicode="&#xe7;" horiz-adv-x="1046" 
d="M558 239c45.333 0 78.998 12.334 100.998 37.001s33 61 33 109h309l2 -6c2.66699 -118 -38.166 -214.167 -122.499 -288.5s-191.833 -111.5 -322.5 -111.5c-164 0 -290.5 51 -379.5 153s-133.5 234.333 -133.5 397v23c0 162 44.333 294.167 133 396.5
s214.334 153.5 377.001 153.5c137.333 0 247 -38.333 329 -115s121.667 -181 119 -313l-2 -6h-309c0 51.333 -11.333 93.166 -34 125.499s-57 48.5 -103 48.5c-64 0 -108.833 -26.333 -134.5 -79s-38.5 -123 -38.5 -211v-23c0 -90.667 12.833 -161.667 38.5 -213
s71.5 -77 137.5 -77zM689.998 10.001l-10.001 -61.001c42.667 -7.33301 78.334 -24.666 107.001 -51.999s43 -67.666 43 -120.999c0 -76 -32.333 -136.333 -97 -181s-157 -67 -277 -67l-7 186c27.333 0 48.833 6.33301 64.5 19s23.5 32 23.5 58
c0 25.333 -10.167 43.166 -30.5 53.499s-54.833 16.833 -103.5 19.5l31 146h256z" />
    <glyph glyph-name="egrave" unicode="&#xe8;" horiz-adv-x="1083" 
d="M590 -21c-159.333 0 -286.5 50.001 -381.5 150.001s-142.5 225.333 -142.5 376v38c0 164.667 43.167 299.167 129.5 403.5s209.833 156.166 370.5 155.499c146.667 0 261.667 -44 345 -132s125 -207.333 125 -358v-177h-618l-2 -6c7.33301 -55.333 30 -100.833 68 -136.5
s88.667 -53.5 152 -53.5c64 0 115.167 5 153.5 15s86.833 27.333 145.5 52l80 -206c-47.333 -34.667 -108.5 -63.5 -183.5 -86.5s-155.5 -34.5 -241.5 -34.5zM566 842.001c-48.667 0 -85.168 -17.333 -109.501 -52s-39.166 -81 -44.499 -139l3 -5h291v26
c0 54.667 -11.333 96.667 -34 126s-58 44 -106 44zM719.999 1238h-275l-282 260l2 6h347z" />
    <glyph glyph-name="eacute" unicode="&#xe9;" horiz-adv-x="1083" 
d="M590 -21c-159.333 0 -286.5 50.001 -381.5 150.001s-142.5 225.333 -142.5 376v38c0 164.667 43.167 299.167 129.5 403.5s209.833 156.166 370.5 155.499c146.667 0 261.667 -44 345 -132s125 -207.333 125 -358v-177h-618l-2 -6c7.33301 -55.333 30 -100.833 68 -136.5
s88.667 -53.5 152 -53.5c64 0 115.167 5 153.5 15s86.833 27.333 145.5 52l80 -206c-47.333 -34.667 -108.5 -63.5 -183.5 -86.5s-155.5 -34.5 -241.5 -34.5zM566 842.001c-48.667 0 -85.168 -17.333 -109.501 -52s-39.166 -81 -44.499 -139l3 -5h291v26
c0 54.667 -11.333 96.667 -34 126s-58 44 -106 44zM568.999 1506h348l2 -6l-280 -260h-276z" />
    <glyph glyph-name="ecircumflex" unicode="&#xea;" horiz-adv-x="1083" 
d="M590 -21c-159.333 0 -286.5 50.001 -381.5 150.001s-142.5 225.333 -142.5 376v38c0 164.667 43.167 299.167 129.5 403.5s209.833 156.166 370.5 155.499c146.667 0 261.667 -44 345 -132s125 -207.333 125 -358v-177h-618l-2 -6c7.33301 -55.333 30 -100.833 68 -136.5
s88.667 -53.5 152 -53.5c64 0 115.167 5 153.5 15s86.833 27.333 145.5 52l80 -206c-47.333 -34.667 -108.5 -63.5 -183.5 -86.5s-155.5 -34.5 -241.5 -34.5zM566 842.001c-48.667 0 -85.168 -17.333 -109.501 -52s-39.166 -81 -44.499 -139l3 -5h291v26
c0 54.667 -11.333 96.667 -34 126s-58 44 -106 44zM941.999 1288v-22h-265l-137 126l-136 -126h-260v26l300 240h193z" />
    <glyph glyph-name="edieresis" unicode="&#xeb;" horiz-adv-x="1083" 
d="M590 -21c-159.333 0 -286.5 50.001 -381.5 150.001s-142.5 225.333 -142.5 376v38c0 164.667 43.167 299.167 129.5 403.5s209.833 156.166 370.5 155.499c146.667 0 261.667 -44 345 -132s125 -207.333 125 -358v-177h-618l-2 -6c7.33301 -55.333 30 -100.833 68 -136.5
s88.667 -53.5 152 -53.5c64 0 115.167 5 153.5 15s86.833 27.333 145.5 52l80 -206c-47.333 -34.667 -108.5 -63.5 -183.5 -86.5s-155.5 -34.5 -241.5 -34.5zM566 842.001c-48.667 0 -85.168 -17.333 -109.501 -52s-39.166 -81 -44.499 -139l3 -5h291v26
c0 54.667 -11.333 96.667 -34 126s-58 44 -106 44zM944.999 1280h-290v204h290v-204zM429.999 1280h-290v204h290v-204z" />
    <glyph glyph-name="igrave" unicode="&#xec;" horiz-adv-x="584" 
d="M462 0h-339v1082h339v-1082zM475 1216h-275l-282 260l2 6h347z" />
    <glyph glyph-name="iacute" unicode="&#xed;" horiz-adv-x="584" 
d="M462 0h-339v1082h339v-1082zM322 1484h348l2 -6l-280 -260h-276z" />
    <glyph glyph-name="icircumflex" unicode="&#xee;" horiz-adv-x="584" 
d="M462 0h-339v1082h339v-1082zM697 1268v-22h-265l-137 126l-136 -126h-260v26l300 240h193z" />
    <glyph glyph-name="idieresis" unicode="&#xef;" horiz-adv-x="584" 
d="M462 0h-339v1082h339v-1082zM698 1258h-290v204h290v-204zM183 1258h-290v204h290v-204z" />
    <glyph glyph-name="eth" unicode="&#xf0;" horiz-adv-x="1226" 
d="M934 1280c74 -76 131.5 -165.165 172.5 -267.498s61.5 -214.5 61.5 -336.5v-63c0 -186 -54.5 -338.167 -163.5 -456.5s-245.167 -177.5 -408.5 -177.5c-165.333 0 -299.833 46.833 -403.5 140.5s-155.5 209.834 -155.5 348.501c0 150.667 44 270.5 132 359.5
s212 133.5 372 133.5c48.667 0 94.5 -6.33301 137.5 -19s80.833 -30.334 113.5 -53.001l4 5c-13.333 44.667 -32.5 86.5 -57.5 125.5s-54.167 74.5 -87.5 106.5l-213 -116l-78 118l157 85v6c-20 10 -41.333 19.667 -64 29s-45.667 17.666 -69 24.999l107 244
c60 -13.333 117.5 -31.833 172.5 -55.5s106.5 -51.834 154.5 -84.501l196 107l77 -118zM600 239.002c72 0 128.333 34.8311 169 104.498s61 159.5 61 269.5v35c-22 20.667 -51.833 37.834 -89.5 51.501s-81.167 20.5 -130.5 20.5c-78.667 0 -137.667 -22.167 -177 -66.5
s-59 -106.166 -59 -185.499c0 -67.333 20.5 -122.333 61.5 -165s95.833 -64 164.5 -64z" />
    <glyph glyph-name="ntilde" unicode="&#xf1;" 
d="M407 1082l12.998 -152c35.333 54 79 96.167 131 126.5s110 45.5 174 45.5c106 0 188.833 -34.333 248.5 -103s89.5 -178 89.5 -328v-671h-338v672c0 62 -12.833 105.833 -38.5 131.5s-63.5 38.5 -113.5 38.5c-31.333 0 -59.166 -5.66699 -83.499 -17
s-45.166 -27 -62.499 -47v-778h-337v1082h317zM963.998 1539c0 -64 -20.002 -118.833 -60.002 -164.5s-90 -68.5 -150 -68.5c-46.667 0 -101.5 14 -164.5 42s-111.833 42 -146.5 42c-22 0 -40.333 -10.833 -55 -32.5s-22 -47.5 -22 -77.5l-178 50
c0 62.667 19.833 117.167 59.5 163.5s89.5 69.5 149.5 69.5c37.333 0 89.833 -13.833 157.5 -41.5s118.834 -41.5 153.501 -41.5c20.667 0 38.834 10.667 54.501 32s23.5 47.333 23.5 78z" />
    <glyph glyph-name="ograve" unicode="&#xf2;" 
d="M51 551c0 162.667 46 295.167 138 397.5s220.333 153.5 385 153.5c165.333 0 294 -51.167 386 -153.5s138 -234.833 138 -397.5v-21c0 -163.333 -46 -296 -138 -398s-220 -153 -384 -153c-166 0 -295 51 -387 153s-138 234.667 -138 398v21zM389 530
c0 -90.667 14.167 -161.834 42.5 -213.501s76.5 -77.5 144.5 -77.5c66 0 113.333 26 142 78s43 123 43 213v21c0 88 -14.333 158.5 -43 211.5s-76.667 79.5 -144 79.5c-66.667 0 -114.167 -26.667 -142.5 -80s-42.5 -123.666 -42.5 -210.999v-21zM755 1237h-275l-282 260
l2 6h347z" />
    <glyph glyph-name="oacute" unicode="&#xf3;" 
d="M51 551c0 162.667 46 295.167 138 397.5s220.333 153.5 385 153.5c165.333 0 294 -51.167 386 -153.5s138 -234.833 138 -397.5v-21c0 -163.333 -46 -296 -138 -398s-220 -153 -384 -153c-166 0 -295 51 -387 153s-138 234.667 -138 398v21zM389 530
c0 -90.667 14.167 -161.834 42.5 -213.501s76.5 -77.5 144.5 -77.5c66 0 113.333 26 142 78s43 123 43 213v21c0 88 -14.333 158.5 -43 211.5s-76.667 79.5 -144 79.5c-66.667 0 -114.167 -26.667 -142.5 -80s-42.5 -123.666 -42.5 -210.999v-21zM604 1505h348l2 -6
l-280 -260h-276z" />
    <glyph glyph-name="ocircumflex" unicode="&#xf4;" 
d="M51 551c0 162.667 46 295.167 138 397.5s220.333 153.5 385 153.5c165.333 0 294 -51.167 386 -153.5s138 -234.833 138 -397.5v-21c0 -163.333 -46 -296 -138 -398s-220 -153 -384 -153c-166 0 -295 51 -387 153s-138 234.667 -138 398v21zM389 530
c0 -90.667 14.167 -161.834 42.5 -213.501s76.5 -77.5 144.5 -77.5c66 0 113.333 26 142 78s43 123 43 213v21c0 88 -14.333 158.5 -43 211.5s-76.667 79.5 -144 79.5c-66.667 0 -114.167 -26.667 -142.5 -80s-42.5 -123.666 -42.5 -210.999v-21zM977 1287v-22h-265
l-137 126l-136 -126h-260v26l300 240h193z" />
    <glyph glyph-name="otilde" unicode="&#xf5;" 
d="M51 551c0 162.667 46 295.167 138 397.5s220.333 153.5 385 153.5c165.333 0 294 -51.167 386 -153.5s138 -234.833 138 -397.5v-21c0 -163.333 -46 -296 -138 -398s-220 -153 -384 -153c-166 0 -295 51 -387 153s-138 234.667 -138 398v21zM389 530
c0 -90.667 14.167 -161.834 42.5 -213.501s76.5 -77.5 144.5 -77.5c66 0 113.333 26 142 78s43 123 43 213v21c0 88 -14.333 158.5 -43 211.5s-76.667 79.5 -144 79.5c-66.667 0 -114.167 -26.667 -142.5 -80s-42.5 -123.666 -42.5 -210.999v-21zM963 1539
c0 -64 -20.002 -118.833 -60.002 -164.5s-90 -68.5 -150 -68.5c-46.667 0 -101.5 14 -164.5 42s-111.833 42 -146.5 42c-22 0 -40.333 -10.833 -55 -32.5s-22 -47.5 -22 -77.5l-178 50c0 62.667 19.833 117.167 59.5 163.5s89.5 69.5 149.5 69.5
c37.333 0 89.833 -13.833 157.5 -41.5s118.834 -41.5 153.501 -41.5c20.667 0 38.834 10.667 54.501 32s23.5 47.333 23.5 78z" />
    <glyph glyph-name="odieresis" unicode="&#xf6;" 
d="M51 551c0 162.667 46 295.167 138 397.5s220.333 153.5 385 153.5c165.333 0 294 -51.167 386 -153.5s138 -234.833 138 -397.5v-21c0 -163.333 -46 -296 -138 -398s-220 -153 -384 -153c-166 0 -295 51 -387 153s-138 234.667 -138 398v21zM389 530
c0 -90.667 14.167 -161.834 42.5 -213.501s76.5 -77.5 144.5 -77.5c66 0 113.333 26 142 78s43 123 43 213v21c0 88 -14.333 158.5 -43 211.5s-76.667 79.5 -144 79.5c-66.667 0 -114.167 -26.667 -142.5 -80s-42.5 -123.666 -42.5 -210.999v-21zM978 1279h-290v204h290
v-204zM463 1279h-290v204h290v-204z" />
    <glyph glyph-name="divide" unicode="&#xf7;" horiz-adv-x="1166" 
d="M1103 563h-1044v244h1044v-244zM752 961h-339v245h339v-245zM752 158h-339v246h339v-246z" />
    <glyph glyph-name="oslash" unicode="&#xf8;" horiz-adv-x="1152" 
d="M51 551c0 162.667 46.001 295.168 138.001 397.501s220.333 153.5 385 153.5c31.333 0 61.666 -2.16699 90.999 -6.5s58 -10.5 86 -18.5l69 142h177l-103 -212c66 -48.667 116.5 -112.334 151.5 -191.001s52.5 -167 52.5 -265v-21c0 -163.333 -46 -296 -138 -398
s-220 -153 -384 -153c-31.333 0 -61.166 2 -89.499 6s-55.5 9.66699 -81.5 17l-71 -147h-177l104 214c-68.667 48 -120.834 111.833 -156.501 191.5s-53.5 169.5 -53.5 269.5v21zM389.001 530.001c0 -31.333 1.33301 -59.6689 4 -85.002s7.33398 -46.333 14.001 -63l6 -1
l220 452c-9.33301 2.66699 -18.833 4.83398 -28.5 6.50098s-19.834 2.5 -30.501 2.5c-66.667 0 -114.167 -26.667 -142.5 -80s-42.5 -123.666 -42.5 -210.999v-21zM761.001 550.998c0 27.333 -1.5 52.833 -4.5 76.5s-6.83301 43.5 -11.5 59.5l-6 1l-215 -443
c7.33301 -2 15.333 -3.5 24 -4.5s18 -1.5 28 -1.5c66 0 113.333 26 142 78s43 123 43 213v21z" />
    <glyph glyph-name="ugrave" unicode="&#xf9;" 
d="M745 128c-34.667 -48 -77.167 -84.833 -127.5 -110.5s-107.166 -38.5 -170.499 -38.5c-112 0 -199.833 36 -263.5 108s-95.5 183.667 -95.5 335v660h337v-662c0 -60.667 11.5 -106 34.5 -136s55.833 -45 98.5 -45c36 0 67.667 5 95 15s50.666 25 69.999 45v783h338v-1082
h-295zM754 1216h-275l-282 260l2 6h347z" />
    <glyph glyph-name="uacute" unicode="&#xfa;" 
d="M745 128c-34.667 -48 -77.167 -84.833 -127.5 -110.5s-107.166 -38.5 -170.499 -38.5c-112 0 -199.833 36 -263.5 108s-95.5 183.667 -95.5 335v660h337v-662c0 -60.667 11.5 -106 34.5 -136s55.833 -45 98.5 -45c36 0 67.667 5 95 15s50.666 25 69.999 45v783h338v-1082
h-295zM603 1484h348l2 -6l-280 -260h-276z" />
    <glyph glyph-name="ucircumflex" unicode="&#xfb;" 
d="M745 128c-34.667 -48 -77.167 -84.833 -127.5 -110.5s-107.166 -38.5 -170.499 -38.5c-112 0 -199.833 36 -263.5 108s-95.5 183.667 -95.5 335v660h337v-662c0 -60.667 11.5 -106 34.5 -136s55.833 -45 98.5 -45c36 0 67.667 5 95 15s50.666 25 69.999 45v783h338v-1082
h-295zM976 1268v-22h-265l-137 126l-136 -126h-260v26l300 240h193z" />
    <glyph glyph-name="udieresis" unicode="&#xfc;" 
d="M745 128c-34.667 -48 -77.167 -84.833 -127.5 -110.5s-107.166 -38.5 -170.499 -38.5c-112 0 -199.833 36 -263.5 108s-95.5 183.667 -95.5 335v660h337v-662c0 -60.667 11.5 -106 34.5 -136s55.833 -45 98.5 -45c36 0 67.667 5 95 15s50.666 25 69.999 45v783h338v-1082
h-295zM977 1258h-290v204h290v-204zM462 1258h-290v204h290v-204z" />
    <glyph glyph-name="yacute" unicode="&#xfd;" horiz-adv-x="1053" 
d="M515 477l1.00098 -8h6l179 613h360l-431 -1243c-33.333 -80 -76.333 -146 -129 -198s-136.334 -78 -251.001 -78c-29.333 0 -53.333 1.83301 -72 5.5s-48 10.5 -88 20.5l41 241l21 -4.5c4.66699 -1 10.667 -1.5 18 -1.5c53.333 0 92.333 7.83301 117 23.5
s43 39.167 55 70.5l27 70l-374 1094h359zM556.001 1484h348l2 -6l-280 -260h-276z" />
    <glyph glyph-name="thorn" unicode="&#xfe;" horiz-adv-x="1149" 
d="M1097 518c0 -162.667 -36.668 -293.167 -110.001 -391.5s-176.666 -147.5 -309.999 -147.5c-52.667 0 -99 9.83301 -139 29.5s-74.667 48.5 -104 86.5v-95h-1v-416h-338v1976h339v-583c30 40 64.667 70.833 104 92.5s85 32.5 137 32.5c134 0 237.833 -51.667 311.5 -155
s110.5 -239.333 110.5 -408v-21zM759.999 539c0 91.333 -13.334 164.667 -40.001 220s-69.334 83 -128.001 83c-37.333 0 -69.166 -7 -95.499 -21s-47.166 -33.667 -62.499 -59v-455c16 -22.667 37.167 -39.667 63.5 -51s58.5 -17 96.5 -17
c59.333 0 101.833 24.5 127.5 73.5s38.5 117.5 38.5 205.5v21z" />
    <glyph glyph-name="ydieresis" unicode="&#xff;" horiz-adv-x="1053" 
d="M515 477l1.00098 -8h6l179 613h360l-431 -1243c-33.333 -80 -76.333 -146 -129 -198s-136.334 -78 -251.001 -78c-29.333 0 -53.333 1.83301 -72 5.5s-48 10.5 -88 20.5l41 241l21 -4.5c4.66699 -1 10.667 -1.5 18 -1.5c53.333 0 92.333 7.83301 117 23.5
s43 39.167 55 70.5l27 70l-374 1094h359zM932.001 1258h-290v204h290v-204zM417.001 1258h-290v204h290v-204z" />
    <glyph glyph-name="Amacron" unicode="&#x100;" horiz-adv-x="1300" 
d="M888 283h-459l-82 -283h-340l470 1456h363l471 -1456h-340zM504 543h309l-152 521h-6zM1014 1601h-734v173h734v-173z" />
    <glyph glyph-name="amacron" unicode="&#x101;" horiz-adv-x="1086" 
d="M718 1c-9.33301 17.333 -17.834 36.668 -25.501 58.001s-14.167 43.333 -19.5 66c-32 -44.667 -70.667 -80.167 -116 -106.5s-100.333 -39.5 -165 -39.5c-102.667 0 -186.167 29.667 -250.5 89s-96.5 138.333 -96.5 237c0 107.333 40.167 190.166 120.5 248.499
s202.5 87.5 366.5 87.5h123v77c0 46 -10.833 81.333 -32.5 106s-55.167 37 -100.5 37c-38.667 0 -67.5 -9.16699 -86.5 -27.5s-28.5 -46.833 -28.5 -85.5l-327 1l-2 6c-4.66699 98.667 36.333 181.167 123 247.5s201.334 99.5 344.001 99.5
c133.333 0 241.5 -33.333 324.5 -100s124.5 -162 124.5 -286v-408c0 -58 4.83301 -111.667 14.5 -161s24.167 -98.333 43.5 -147zM494.999 220.002c33.333 0 63.999 6.66797 91.999 20.001s50.667 30.666 68 51.999v169h-120c-53.333 0 -92.166 -13 -116.499 -39
s-36.5 -59 -36.5 -99c0 -30.667 10.5 -55.5 31.5 -74.5s48.167 -28.5 81.5 -28.5zM904.998 1281h-734v173h734v-173z" />
    <glyph glyph-name="Abreve" unicode="&#x102;" horiz-adv-x="1300" 
d="M888 283h-459l-82 -283h-340l470 1456h363l471 -1456h-340zM504 543h309l-152 521h-6zM1009 1908l2.00195 -6c3.33301 -88.667 -28.334 -161 -95.001 -217s-156 -84 -268 -84c-112.667 0 -202.334 28 -269.001 84s-98 128.333 -94 217l2 6h243
c0 -31.333 9.5 -57 28.5 -77s48.833 -30 89.5 -30c40 0 69.5 10 88.5 30s28.5 45.667 28.5 77h244z" />
    <glyph glyph-name="abreve" unicode="&#x103;" horiz-adv-x="1086" 
d="M718 1c-9.33301 17.333 -17.834 36.668 -25.501 58.001s-14.167 43.333 -19.5 66c-32 -44.667 -70.667 -80.167 -116 -106.5s-100.333 -39.5 -165 -39.5c-102.667 0 -186.167 29.667 -250.5 89s-96.5 138.333 -96.5 237c0 107.333 40.167 190.166 120.5 248.499
s202.5 87.5 366.5 87.5h123v77c0 46 -10.833 81.333 -32.5 106s-55.167 37 -100.5 37c-38.667 0 -67.5 -9.16699 -86.5 -27.5s-28.5 -46.833 -28.5 -85.5l-327 1l-2 6c-4.66699 98.667 36.333 181.167 123 247.5s201.334 99.5 344.001 99.5
c133.333 0 241.5 -33.333 324.5 -100s124.5 -162 124.5 -286v-408c0 -58 4.83301 -111.667 14.5 -161s24.167 -98.333 43.5 -147zM494.999 220.002c33.333 0 63.999 6.66797 91.999 20.001s50.667 30.666 68 51.999v169h-120c-53.333 0 -92.166 -13 -116.499 -39
s-36.5 -59 -36.5 -99c0 -30.667 10.5 -55.5 31.5 -74.5s48.167 -28.5 81.5 -28.5zM899.998 1586l2.00195 -6c3.33301 -88.667 -28.334 -161 -95.001 -217s-156 -84 -268 -84c-112.667 0 -202.334 28 -269.001 84s-98 128.333 -94 217l2 6h243c0 -31.333 9.5 -57 28.5 -77
s48.833 -30 89.5 -30c40 0 69.5 10 88.5 30s28.5 45.667 28.5 77h244z" />
    <glyph glyph-name="Aogonek" unicode="&#x104;" horiz-adv-x="1300" 
d="M888 283h-459l-82 -283h-340l470 1456h363l471 -1456h-340zM504 543h309l-152 521h-6zM1196 0c-29.333 -35.333 -49.999 -63.667 -61.999 -85s-18 -47.666 -18 -78.999c0 -12.667 4.66699 -25.667 14 -39s31.333 -20 66 -20c18.667 0 35 1.66699 49 5
s28 7.66602 42 12.999l36 -168c-24 -12.667 -50.833 -23.167 -80.5 -31.5s-64.834 -12.5 -105.501 -12.5c-76.667 0 -139.667 18.833 -189 56.5s-74 90.167 -74 157.5c0 50 13 97.5 39 142.5s66.333 85.167 121 120.5z" />
    <glyph glyph-name="aogonek" unicode="&#x105;" horiz-adv-x="1086" 
d="M718 1c-9.33301 17.333 -17.834 36.668 -25.501 58.001s-14.167 43.333 -19.5 66c-32 -44.667 -70.667 -80.167 -116 -106.5s-100.333 -39.5 -165 -39.5c-102.667 0 -186.167 29.667 -250.5 89s-96.5 138.333 -96.5 237c0 107.333 40.167 190.166 120.5 248.499
s202.5 87.5 366.5 87.5h123v77c0 46 -10.833 81.333 -32.5 106s-55.167 37 -100.5 37c-38.667 0 -67.5 -9.16699 -86.5 -27.5s-28.5 -46.833 -28.5 -85.5l-327 1l-2 6c-4.66699 98.667 36.333 181.167 123 247.5s201.334 99.5 344.001 99.5
c133.333 0 241.5 -33.333 324.5 -100s124.5 -162 124.5 -286v-408c0 -58 4.83301 -111.667 14.5 -161s24.167 -98.333 43.5 -147zM494.999 220.002c33.333 0 63.999 6.66797 91.999 20.001s50.667 30.666 68 51.999v169h-120c-53.333 0 -92.166 -13 -116.499 -39
s-36.5 -59 -36.5 -99c0 -30.667 10.5 -55.5 31.5 -74.5s48.167 -28.5 81.5 -28.5zM935.998 0.00292969c-29.333 -35.333 -49.999 -63.667 -61.999 -85s-18 -47.666 -18 -78.999c0 -12.667 4.66699 -25.667 14 -39s31.333 -20 66 -20c18.667 0 35 1.66699 49 5
s28 7.66602 42 12.999l36 -168c-24 -12.667 -50.833 -23.167 -80.5 -31.5s-64.834 -12.5 -105.501 -12.5c-76.667 0 -139.667 18.833 -189 56.5s-74 90.167 -74 157.5c0 50 13 97.5 39 142.5s66.333 85.167 121 120.5z" />
    <glyph glyph-name="Cacute" unicode="&#x106;" horiz-adv-x="1316" 
d="M1248 511l2.00195 -6c-6.66699 -170.667 -57.167 -301 -151.5 -391s-231.166 -135 -410.499 -135c-180 0 -326.333 55.333 -439 166s-169 254.334 -169 431.001v304c0 176 54.167 319.5 162.5 430.5s249.166 166.5 422.499 166.5c184 0 324.667 -46.333 422 -139
s152.333 -224.334 165 -395.001l-2 -6h-329c-4.66699 94.667 -25.834 165 -63.501 211s-101.834 69 -192.501 69c-76.667 0 -137 -30.833 -181 -92.5s-66 -142.5 -66 -242.5v-306c0 -100.667 24 -182 72 -244s114 -93 198 -93c81.333 0 139 21.667 173 65
s53.333 112.333 58 207h329zM700.002 1848h348l2 -6l-280 -260h-276z" />
    <glyph glyph-name="cacute" unicode="&#x107;" horiz-adv-x="1046" 
d="M558 239c45.333 0 78.998 12.334 100.998 37.001s33 61 33 109h309l2 -6c2.66699 -118 -38.166 -214.167 -122.499 -288.5s-191.833 -111.5 -322.5 -111.5c-164 0 -290.5 51 -379.5 153s-133.5 234.333 -133.5 397v23c0 162 44.333 294.167 133 396.5
s214.334 153.5 377.001 153.5c137.333 0 247 -38.333 329 -115s121.667 -181 119 -313l-2 -6h-309c0 51.333 -11.333 93.166 -34 125.499s-57 48.5 -103 48.5c-64 0 -108.833 -26.333 -134.5 -79s-38.5 -123 -38.5 -211v-23c0 -90.667 12.833 -161.667 38.5 -213
s71.5 -77 137.5 -77zM557.998 1505h348l2 -6l-280 -260h-276z" />
    <glyph glyph-name="Ccircumflex" unicode="&#x108;" horiz-adv-x="1316" 
d="M1248 511l2.00195 -6c-6.66699 -170.667 -57.167 -301 -151.5 -391s-231.166 -135 -410.499 -135c-180 0 -326.333 55.333 -439 166s-169 254.334 -169 431.001v304c0 176 54.167 319.5 162.5 430.5s249.166 166.5 422.499 166.5c184 0 324.667 -46.333 422 -139
s152.333 -224.334 165 -395.001l-2 -6h-329c-4.66699 94.667 -25.834 165 -63.501 211s-101.834 69 -192.501 69c-76.667 0 -137 -30.833 -181 -92.5s-66 -142.5 -66 -242.5v-306c0 -100.667 24 -182 72 -244s114 -93 198 -93c81.333 0 139 21.667 173 65
s53.333 112.333 58 207h329zM1073 1630v-22h-265l-137 126l-136 -126h-260v26l300 240h193z" />
    <glyph glyph-name="ccircumflex" unicode="&#x109;" horiz-adv-x="1046" 
d="M558 239c45.333 0 78.998 12.334 100.998 37.001s33 61 33 109h309l2 -6c2.66699 -118 -38.166 -214.167 -122.499 -288.5s-191.833 -111.5 -322.5 -111.5c-164 0 -290.5 51 -379.5 153s-133.5 234.333 -133.5 397v23c0 162 44.333 294.167 133 396.5
s214.334 153.5 377.001 153.5c137.333 0 247 -38.333 329 -115s121.667 -181 119 -313l-2 -6h-309c0 51.333 -11.333 93.166 -34 125.499s-57 48.5 -103 48.5c-64 0 -108.833 -26.333 -134.5 -79s-38.5 -123 -38.5 -211v-23c0 -90.667 12.833 -161.667 38.5 -213
s71.5 -77 137.5 -77zM930.998 1287v-22h-265l-137 126l-136 -126h-260v26l300 240h193z" />
    <glyph glyph-name="uni010A" unicode="&#x10a;" horiz-adv-x="1316" 
d="M1248 511l2.00195 -6c-6.66699 -170.667 -57.167 -301 -151.5 -391s-231.166 -135 -410.499 -135c-180 0 -326.333 55.333 -439 166s-169 254.334 -169 431.001v304c0 176 54.167 319.5 162.5 430.5s249.166 166.5 422.499 166.5c184 0 324.667 -46.333 422 -139
s152.333 -224.334 165 -395.001l-2 -6h-329c-4.66699 94.667 -25.834 165 -63.501 211s-101.834 69 -192.501 69c-76.667 0 -137 -30.833 -181 -92.5s-66 -142.5 -66 -242.5v-306c0 -100.667 24 -182 72 -244s114 -93 198 -93c81.333 0 139 21.667 173 65
s53.333 112.333 58 207h329zM839.002 1623h-347v260h347v-260z" />
    <glyph glyph-name="uni010B" unicode="&#x10b;" horiz-adv-x="1046" 
d="M558 239c45.333 0 78.998 12.334 100.998 37.001s33 61 33 109h309l2 -6c2.66699 -118 -38.166 -214.167 -122.499 -288.5s-191.833 -111.5 -322.5 -111.5c-164 0 -290.5 51 -379.5 153s-133.5 234.333 -133.5 397v23c0 162 44.333 294.167 133 396.5
s214.334 153.5 377.001 153.5c137.333 0 247 -38.333 329 -115s121.667 -181 119 -313l-2 -6h-309c0 51.333 -11.333 93.166 -34 125.499s-57 48.5 -103 48.5c-64 0 -108.833 -26.333 -134.5 -79s-38.5 -123 -38.5 -211v-23c0 -90.667 12.833 -161.667 38.5 -213
s71.5 -77 137.5 -77zM696.998 1280h-347v260h347v-260z" />
    <glyph glyph-name="Ccaron" unicode="&#x10c;" horiz-adv-x="1316" 
d="M1248 511l2.00195 -6c-6.66699 -170.667 -57.167 -301 -151.5 -391s-231.166 -135 -410.499 -135c-180 0 -326.333 55.333 -439 166s-169 254.334 -169 431.001v304c0 176 54.167 319.5 162.5 430.5s249.166 166.5 422.499 166.5c184 0 324.667 -46.333 422 -139
s152.333 -224.334 165 -395.001l-2 -6h-329c-4.66699 94.667 -25.834 165 -63.501 211s-101.834 69 -192.501 69c-76.667 0 -137 -30.833 -181 -92.5s-66 -142.5 -66 -242.5v-306c0 -100.667 24 -182 72 -244s114 -93 198 -93c81.333 0 139 21.667 173 65
s53.333 112.333 58 207h329zM671.002 1782l102 116h309v-16l-292 -260h-239l-294 262v14h312z" />
    <glyph glyph-name="ccaron" unicode="&#x10d;" horiz-adv-x="1046" 
d="M558 239c45.333 0 78.998 12.334 100.998 37.001s33 61 33 109h309l2 -6c2.66699 -118 -38.166 -214.167 -122.499 -288.5s-191.833 -111.5 -322.5 -111.5c-164 0 -290.5 51 -379.5 153s-133.5 234.333 -133.5 397v23c0 162 44.333 294.167 133 396.5
s214.334 153.5 377.001 153.5c137.333 0 247 -38.333 329 -115s121.667 -181 119 -313l-2 -6h-309c0 51.333 -11.333 93.166 -34 125.499s-57 48.5 -103 48.5c-64 0 -108.833 -26.333 -134.5 -79s-38.5 -123 -38.5 -211v-23c0 -90.667 12.833 -161.667 38.5 -213
s71.5 -77 137.5 -77zM528.998 1439l102 116h309v-16l-292 -260h-239l-294 262v14h312z" />
    <glyph glyph-name="Dcaron" unicode="&#x10e;" horiz-adv-x="1338" 
d="M114 0v1456h526c171.333 0 314.666 -55.833 429.999 -167.5s173 -254.834 173 -429.501v-262c0 -175.333 -57.667 -318.666 -173 -429.999s-258.666 -167 -429.999 -167h-526zM453 1196v-936h164c90 0 160.333 30.833 211 92.5s76 143.167 76 244.5v264
c0 100.667 -25.333 181.667 -76 243s-121 92 -211 92h-164zM579 1761l102 116h309v-16l-292 -260h-239l-294 262v14h312z" />
    <glyph glyph-name="dcaron" unicode="&#x10f;" horiz-adv-x="1301" 
d="M51 539c0 168.667 36.8311 304.667 110.498 408s177.5 155 311.5 155c50 0 95.167 -11.5 135.5 -34.5s76.5 -55.833 108.5 -98.5v591h338v-1560h-293l-24 133c-33.333 -50 -72.166 -88.167 -116.499 -114.5s-94.5 -39.5 -150.5 -39.5
c-133.333 0 -236.666 49.333 -309.999 148s-110 229 -110 391v21zM388.998 518c0 -88 12.833 -156.501 38.5 -205.501s68.834 -73.5 129.501 -73.5c35.333 0 66.5 6.5 93.5 19.5s49.167 32.167 66.5 57.5v437c-17.333 28.667 -39.333 50.667 -66 66s-57.334 23 -92.001 23
c-60 0 -103.333 -27.667 -130 -83s-40 -128.666 -40 -219.999v-21zM1398 1388l-133 -235h-134l61 245v161h206v-171z" />
    <glyph glyph-name="Dcroat" unicode="&#x110;" horiz-adv-x="1368" 
d="M144 0v647h-119v191h119v618h526c171.333 0 314.666 -55.833 429.999 -167.5s173 -254.834 173 -429.501v-262c0 -175.333 -57.667 -318.666 -173 -429.999s-258.666 -167 -429.999 -167h-526zM711 647h-228v-387h164c90 0 160.333 30.833 211 92.5s76 143.167 76 244.5
v264c0 100.667 -25.333 181.667 -76 243s-121 92 -211 92h-164v-358h228v-191z" />
    <glyph glyph-name="dcroat" unicode="&#x111;" horiz-adv-x="1181" 
d="M1172 1215h-117.002v-1215h-293l-24 133c-33.333 -50 -72.166 -88.167 -116.499 -114.5s-94.5 -39.5 -150.5 -39.5c-133.333 0 -236.666 49.333 -309.999 148s-110 229 -110 391v21c0 168.667 36.833 304.667 110.5 408s177.5 155 311.5 155
c50 0 95.167 -11.5 135.5 -34.5s76.5 -55.833 108.5 -98.5v246h-231v191h231v154h338v-154h117v-191zM388.998 518c0 -88 12.833 -156.501 38.5 -205.501s68.834 -73.5 129.501 -73.5c35.333 0 66.5 6.5 93.5 19.5s49.167 32.167 66.5 57.5v437
c-17.333 28.667 -39.333 50.667 -66 66s-57.334 23 -92.001 23c-60 0 -103.333 -27.667 -130 -83s-40 -128.666 -40 -219.999v-21z" />
    <glyph glyph-name="Emacron" unicode="&#x112;" horiz-adv-x="1165" 
d="M1024 623h-571v-363h673v-260h-1012v1456h1014v-260h-675v-313h571v-260zM958 1601h-734v173h734v-173z" />
    <glyph glyph-name="emacron" unicode="&#x113;" horiz-adv-x="1083" 
d="M590 -21c-159.333 0 -286.5 50.001 -381.5 150.001s-142.5 225.333 -142.5 376v38c0 164.667 43.167 299.167 129.5 403.5s209.833 156.166 370.5 155.499c146.667 0 261.667 -44 345 -132s125 -207.333 125 -358v-177h-618l-2 -6c7.33301 -55.333 30 -100.833 68 -136.5
s88.667 -53.5 152 -53.5c64 0 115.167 5 153.5 15s86.833 27.333 145.5 52l80 -206c-47.333 -34.667 -108.5 -63.5 -183.5 -86.5s-155.5 -34.5 -241.5 -34.5zM566 842.001c-48.667 0 -85.168 -17.333 -109.501 -52s-39.166 -81 -44.499 -139l3 -5h291v26
c0 54.667 -11.333 96.667 -34 126s-58 44 -106 44zM906.999 1282h-734v173h734v-173z" />
    <glyph glyph-name="Ebreve" unicode="&#x114;" horiz-adv-x="1165" 
d="M1024 623h-571v-363h673v-260h-1012v1456h1014v-260h-675v-313h571v-260zM953 1908l2.00195 -6c3.33301 -88.667 -28.334 -161 -95.001 -217s-156 -84 -268 -84c-112.667 0 -202.334 28 -269.001 84s-98 128.333 -94 217l2 6h243c0 -31.333 9.5 -57 28.5 -77
s48.833 -30 89.5 -30c40 0 69.5 10 88.5 30s28.5 45.667 28.5 77h244z" />
    <glyph glyph-name="ebreve" unicode="&#x115;" horiz-adv-x="1083" 
d="M590 -21c-159.333 0 -286.5 50.001 -381.5 150.001s-142.5 225.333 -142.5 376v38c0 164.667 43.167 299.167 129.5 403.5s209.833 156.166 370.5 155.499c146.667 0 261.667 -44 345 -132s125 -207.333 125 -358v-177h-618l-2 -6c7.33301 -55.333 30 -100.833 68 -136.5
s88.667 -53.5 152 -53.5c64 0 115.167 5 153.5 15s86.833 27.333 145.5 52l80 -206c-47.333 -34.667 -108.5 -63.5 -183.5 -86.5s-155.5 -34.5 -241.5 -34.5zM566 842.001c-48.667 0 -85.168 -17.333 -109.501 -52s-39.166 -81 -44.499 -139l3 -5h291v26
c0 54.667 -11.333 96.667 -34 126s-58 44 -106 44zM901.999 1587l2.00195 -6c3.33301 -88.667 -28.334 -161 -95.001 -217s-156 -84 -268 -84c-112.667 0 -202.334 28 -269.001 84s-98 128.333 -94 217l2 6h243c0 -31.333 9.5 -57 28.5 -77s48.833 -30 89.5 -30
c40 0 69.5 10 88.5 30s28.5 45.667 28.5 77h244z" />
    <glyph glyph-name="Edotaccent" unicode="&#x116;" horiz-adv-x="1165" 
d="M1024 623h-571v-363h673v-260h-1012v1456h1014v-260h-675v-313h571v-260zM759 1602h-347v260h347v-260z" />
    <glyph glyph-name="edotaccent" unicode="&#x117;" horiz-adv-x="1083" 
d="M590 -21c-159.333 0 -286.5 50.001 -381.5 150.001s-142.5 225.333 -142.5 376v38c0 164.667 43.167 299.167 129.5 403.5s209.833 156.166 370.5 155.499c146.667 0 261.667 -44 345 -132s125 -207.333 125 -358v-177h-618l-2 -6c7.33301 -55.333 30 -100.833 68 -136.5
s88.667 -53.5 152 -53.5c64 0 115.167 5 153.5 15s86.833 27.333 145.5 52l80 -206c-47.333 -34.667 -108.5 -63.5 -183.5 -86.5s-155.5 -34.5 -241.5 -34.5zM566 842.001c-48.667 0 -85.168 -17.333 -109.501 -52s-39.166 -81 -44.499 -139l3 -5h291v26
c0 54.667 -11.333 96.667 -34 126s-58 44 -106 44zM707.999 1281h-347v260h347v-260z" />
    <glyph glyph-name="Eogonek" unicode="&#x118;" horiz-adv-x="1165" 
d="M1024 623h-571v-363h673v-260h-1012v1456h1014v-260h-675v-313h571v-260zM680 0c-29.333 -35.333 -49.999 -63.667 -61.999 -85s-18 -47.666 -18 -78.999c0 -12.667 4.66699 -25.667 14 -39s31.333 -20 66 -20c18.667 0 35 1.66699 49 5s28 7.66602 42 12.999l36 -168
c-24 -12.667 -50.833 -23.167 -80.5 -31.5s-64.834 -12.5 -105.501 -12.5c-76.667 0 -139.667 18.833 -189 56.5s-74 90.167 -74 157.5c0 50 13 97.5 39 142.5s66.333 85.167 121 120.5z" />
    <glyph glyph-name="eogonek" unicode="&#x119;" horiz-adv-x="1083" 
d="M590 -21c-159.333 0 -286.5 50.001 -381.5 150.001s-142.5 225.333 -142.5 376v38c0 164.667 43.167 299.167 129.5 403.5s209.833 156.166 370.5 155.499c146.667 0 261.667 -44 345 -132s125 -207.333 125 -358v-177h-618l-2 -6c7.33301 -55.333 30 -100.833 68 -136.5
s88.667 -53.5 152 -53.5c64 0 115.167 5 153.5 15s86.833 27.333 145.5 52l80 -206c-47.333 -34.667 -108.5 -63.5 -183.5 -86.5s-155.5 -34.5 -241.5 -34.5zM566 842.001c-48.667 0 -85.168 -17.333 -109.501 -52s-39.166 -81 -44.499 -139l3 -5h291v26
c0 54.667 -11.333 96.667 -34 126s-58 44 -106 44zM873.999 33.001c-29.333 -35.333 -49.999 -63.667 -61.999 -85s-18 -47.666 -18 -78.999c0 -12.667 4.66699 -25.667 14 -39s31.333 -20 66 -20c18.667 0 35 1.66699 49 5s28 7.66602 42 12.999l36 -168
c-24 -12.667 -50.833 -23.167 -80.5 -31.5s-64.834 -12.5 -105.501 -12.5c-76.667 0 -139.667 18.833 -189 56.5s-74 90.167 -74 157.5c0 50 13 97.5 39 142.5s66.333 85.167 121 120.5z" />
    <glyph glyph-name="Ecaron" unicode="&#x11a;" horiz-adv-x="1165" 
d="M1024 623h-571v-363h673v-260h-1012v1456h1014v-260h-675v-313h571v-260zM591 1761l102 116h309v-16l-292 -260h-239l-294 262v14h312z" />
    <glyph glyph-name="ecaron" unicode="&#x11b;" horiz-adv-x="1083" 
d="M590 -21c-159.333 0 -286.5 50.001 -381.5 150.001s-142.5 225.333 -142.5 376v38c0 164.667 43.167 299.167 129.5 403.5s209.833 156.166 370.5 155.499c146.667 0 261.667 -44 345 -132s125 -207.333 125 -358v-177h-618l-2 -6c7.33301 -55.333 30 -100.833 68 -136.5
s88.667 -53.5 152 -53.5c64 0 115.167 5 153.5 15s86.833 27.333 145.5 52l80 -206c-47.333 -34.667 -108.5 -63.5 -183.5 -86.5s-155.5 -34.5 -241.5 -34.5zM566 842.001c-48.667 0 -85.168 -17.333 -109.501 -52s-39.166 -81 -44.499 -139l3 -5h291v26
c0 54.667 -11.333 96.667 -34 126s-58 44 -106 44zM539.999 1440l102 116h309v-16l-292 -260h-239l-294 262v14h312z" />
    <glyph glyph-name="Gcircumflex" unicode="&#x11c;" horiz-adv-x="1356" 
d="M1264 201c-49.333 -58.667 -121 -110.334 -215 -155.001s-212 -67 -354 -67c-180 0 -326.167 55.333 -438.5 166s-168.5 254.334 -168.5 431.001v304c0 175.333 54.833 318.666 164.5 429.999s250.834 167 423.501 167c187.333 0 327.666 -43.333 420.999 -130
s146.333 -205 159 -355l-2 -6h-317c-11.333 76.667 -36.166 134.334 -74.499 173.001s-96.833 58 -175.5 58s-142 -31.167 -190 -93.5s-72 -142.833 -72 -241.5v-306c0 -101.333 23.667 -182.833 71 -244.5s113.666 -92.5 198.999 -92.5c62 0 110.667 5 146 15
s63.333 23.333 84 40v230h-229v224h568v-547zM1079 1630v-22h-265l-137 126l-136 -126h-260v26l300 240h193z" />
    <glyph glyph-name="gcircumflex" unicode="&#x11d;" 
d="M51 539c0 168.667 36.6689 304.665 110.002 407.998s177 155 311 155c57.333 0 107.666 -13.5 150.999 -40.5s80.666 -65.5 111.999 -115.5l23 136h296v-1040c0 -144.667 -49.667 -260.667 -149 -348s-233 -131 -401 -131c-56 0 -114.667 7.66699 -176 23
s-119.666 36 -174.999 62l55 250c49.333 -21.333 96.333 -37.166 141 -47.499s95.667 -15.5 153 -15.5c69.333 0 122.333 18.667 159 56s55 88.333 55 153v55c-30.667 -39.333 -66.334 -69.166 -107.001 -89.499s-87 -30.5 -139 -30.5c-133.333 0 -236.5 49.333 -309.5 148
s-109.5 229 -109.5 391v21zM388.002 517.998c0 -88 12.833 -156.5 38.5 -205.5s68.834 -73.5 129.501 -73.5c36.667 0 68.167 5.66699 94.5 17s48.166 28.666 65.499 51.999v454c-16.667 25.333 -38.167 45 -64.5 59s-57.5 21 -93.5 21c-60 0 -103.333 -27.667 -130 -83
s-40 -128.666 -40 -219.999v-21zM954.002 1287v-22h-265l-137 126l-136 -126h-260v26l300 240h193z" />
    <glyph glyph-name="Gbreve" unicode="&#x11e;" horiz-adv-x="1356" 
d="M1264 201c-49.333 -58.667 -121 -110.334 -215 -155.001s-212 -67 -354 -67c-180 0 -326.167 55.333 -438.5 166s-168.5 254.334 -168.5 431.001v304c0 175.333 54.833 318.666 164.5 429.999s250.834 167 423.501 167c187.333 0 327.666 -43.333 420.999 -130
s146.333 -205 159 -355l-2 -6h-317c-11.333 76.667 -36.166 134.334 -74.499 173.001s-96.833 58 -175.5 58s-142 -31.167 -190 -93.5s-72 -142.833 -72 -241.5v-306c0 -101.333 23.667 -182.833 71 -244.5s113.666 -92.5 198.999 -92.5c62 0 110.667 5 146 15
s63.333 23.333 84 40v230h-229v224h568v-547zM1039 1929l2.00195 -6c3.33301 -88.667 -28.334 -161 -95.001 -217s-156 -84 -268 -84c-112.667 0 -202.334 28 -269.001 84s-98 128.333 -94 217l2 6h243c0 -31.333 9.5 -57 28.5 -77s48.833 -30 89.5 -30
c40 0 69.5 10 88.5 30s28.5 45.667 28.5 77h244z" />
    <glyph glyph-name="gbreve" unicode="&#x11f;" 
d="M51 539c0 168.667 36.6689 304.665 110.002 407.998s177 155 311 155c57.333 0 107.666 -13.5 150.999 -40.5s80.666 -65.5 111.999 -115.5l23 136h296v-1040c0 -144.667 -49.667 -260.667 -149 -348s-233 -131 -401 -131c-56 0 -114.667 7.66699 -176 23
s-119.666 36 -174.999 62l55 250c49.333 -21.333 96.333 -37.166 141 -47.499s95.667 -15.5 153 -15.5c69.333 0 122.333 18.667 159 56s55 88.333 55 153v55c-30.667 -39.333 -66.334 -69.166 -107.001 -89.499s-87 -30.5 -139 -30.5c-133.333 0 -236.5 49.333 -309.5 148
s-109.5 229 -109.5 391v21zM388.002 517.998c0 -88 12.833 -156.5 38.5 -205.5s68.834 -73.5 129.501 -73.5c36.667 0 68.167 5.66699 94.5 17s48.166 28.666 65.499 51.999v454c-16.667 25.333 -38.167 45 -64.5 59s-57.5 21 -93.5 21c-60 0 -103.333 -27.667 -130 -83
s-40 -128.666 -40 -219.999v-21zM914.002 1586l2.00195 -6c3.33301 -88.667 -28.334 -161 -95.001 -217s-156 -84 -268 -84c-112.667 0 -202.334 28 -269.001 84s-98 128.333 -94 217l2 6h243c0 -31.333 9.5 -57 28.5 -77s48.833 -30 89.5 -30c40 0 69.5 10 88.5 30
s28.5 45.667 28.5 77h244z" />
    <glyph glyph-name="uni0120" unicode="&#x120;" horiz-adv-x="1356" 
d="M1264 201c-49.333 -58.667 -121 -110.334 -215 -155.001s-212 -67 -354 -67c-180 0 -326.167 55.333 -438.5 166s-168.5 254.334 -168.5 431.001v304c0 175.333 54.833 318.666 164.5 429.999s250.834 167 423.501 167c187.333 0 327.666 -43.333 420.999 -130
s146.333 -205 159 -355l-2 -6h-317c-11.333 76.667 -36.166 134.334 -74.499 173.001s-96.833 58 -175.5 58s-142 -31.167 -190 -93.5s-72 -142.833 -72 -241.5v-306c0 -101.333 23.667 -182.833 71 -244.5s113.666 -92.5 198.999 -92.5c62 0 110.667 5 146 15
s63.333 23.333 84 40v230h-229v224h568v-547zM845 1623h-347v260h347v-260z" />
    <glyph glyph-name="uni0121" unicode="&#x121;" 
d="M51 539c0 168.667 36.6689 304.665 110.002 407.998s177 155 311 155c57.333 0 107.666 -13.5 150.999 -40.5s80.666 -65.5 111.999 -115.5l23 136h296v-1040c0 -144.667 -49.667 -260.667 -149 -348s-233 -131 -401 -131c-56 0 -114.667 7.66699 -176 23
s-119.666 36 -174.999 62l55 250c49.333 -21.333 96.333 -37.166 141 -47.499s95.667 -15.5 153 -15.5c69.333 0 122.333 18.667 159 56s55 88.333 55 153v55c-30.667 -39.333 -66.334 -69.166 -107.001 -89.499s-87 -30.5 -139 -30.5c-133.333 0 -236.5 49.333 -309.5 148
s-109.5 229 -109.5 391v21zM388.002 517.998c0 -88 12.833 -156.5 38.5 -205.5s68.834 -73.5 129.501 -73.5c36.667 0 68.167 5.66699 94.5 17s48.166 28.666 65.499 51.999v454c-16.667 25.333 -38.167 45 -64.5 59s-57.5 21 -93.5 21c-60 0 -103.333 -27.667 -130 -83
s-40 -128.666 -40 -219.999v-21zM720.002 1280h-347v260h347v-260z" />
    <glyph glyph-name="Gcommaaccent" unicode="&#x122;" horiz-adv-x="1356" 
d="M1264 201c-49.333 -58.667 -121 -110.334 -215 -155.001s-212 -67 -354 -67c-180 0 -326.167 55.333 -438.5 166s-168.5 254.334 -168.5 431.001v304c0 175.333 54.833 318.666 164.5 429.999s250.834 167 423.501 167c187.333 0 327.666 -43.333 420.999 -130
s146.333 -205 159 -355l-2 -6h-317c-11.333 76.667 -36.166 134.334 -74.499 173.001s-96.833 58 -175.5 58s-142 -31.167 -190 -93.5s-72 -142.833 -72 -241.5v-306c0 -101.333 23.667 -182.833 71 -244.5s113.666 -92.5 198.999 -92.5c62 0 110.667 5 146 15
s63.333 23.333 84 40v230h-229v224h568v-547zM798 -271l-133 -235h-134l61 245v161h206v-171z" />
    <glyph glyph-name="gcommaaccent" unicode="&#x123;" 
d="M51 539c0 168.667 36.6689 304.665 110.002 407.998s177 155 311 155c57.333 0 107.666 -13.5 150.999 -40.5s80.666 -65.5 111.999 -115.5l23 136h296v-1040c0 -144.667 -49.667 -260.667 -149 -348s-233 -131 -401 -131c-56 0 -114.667 7.66699 -176 23
s-119.666 36 -174.999 62l55 250c49.333 -21.333 96.333 -37.166 141 -47.499s95.667 -15.5 153 -15.5c69.333 0 122.333 18.667 159 56s55 88.333 55 153v55c-30.667 -39.333 -66.334 -69.166 -107.001 -89.499s-87 -30.5 -139 -30.5c-133.333 0 -236.5 49.333 -309.5 148
s-109.5 229 -109.5 391v21zM388.002 517.998c0 -88 12.833 -156.5 38.5 -205.5s68.834 -73.5 129.501 -73.5c36.667 0 68.167 5.66699 94.5 17s48.166 28.666 65.499 51.999v454c-16.667 25.333 -38.167 45 -64.5 59s-57.5 21 -93.5 21c-60 0 -103.333 -27.667 -130 -83
s-40 -128.666 -40 -219.999v-21zM418.002 1451l110 265h191l-44 -275v-180h-257v190z" />
    <glyph glyph-name="Hcircumflex" unicode="&#x124;" horiz-adv-x="1444" 
d="M1329 0h-337v586h-539v-586h-339v1456h339v-610h539v610h337v-1456zM1125 1609v-22h-265l-137 126l-136 -126h-260v26l300 240h193z" />
    <glyph glyph-name="hcircumflex" unicode="&#x125;" 
d="M424 948c32.667 48.667 72.5 86.5 119.5 113.5s98.833 40.5 155.5 40.5c112 0 200 -39 264 -117s96 -199 96 -363v-622h-338v624c0 82.667 -12.5 139.667 -37.5 171s-63.167 47 -114.5 47c-32.667 0 -61 -4.83301 -85 -14.5s-44 -23.167 -60 -40.5v-787h-338v1560h338
v-612zM924 1612v-22h-265l-137 126l-136 -126h-260v26l300 240h193z" />
    <glyph glyph-name="Hbar" unicode="&#x126;" horiz-adv-x="1447" 
d="M1329 1213h115v-183h-115v-1030h-337v586h-539v-586h-339v1030h-105v183h105v243h339v-243h539v243h337v-243zM453 846h539v184h-539v-184z" />
    <glyph glyph-name="hbar" unicode="&#x127;" horiz-adv-x="1181" 
d="M677 1211h-223v-263c32.667 48.667 72.5 86.5 119.5 113.5s98.833 40.5 155.5 40.5c112 0 200 -39 264 -117s96 -199 96 -363v-622h-338v624c0 82.667 -12.5 139.667 -37.5 171s-63.167 47 -114.5 47c-32.667 0 -61 -4.83301 -85 -14.5s-44 -23.167 -60 -40.5v-787h-338
v1211h-125v191h125v158h338v-158h223v-191z" />
    <glyph glyph-name="Itilde" unicode="&#x128;" horiz-adv-x="611" 
d="M474 0h-337v1456h337v-1456zM695 1861c0 -64 -20.002 -118.833 -60.002 -164.5s-90 -68.5 -150 -68.5c-46.667 0 -101.5 14 -164.5 42s-111.833 42 -146.5 42c-22 0 -40.333 -10.833 -55 -32.5s-22 -47.5 -22 -77.5l-178 50c0 62.667 19.833 117.167 59.5 163.5
s89.5 69.5 149.5 69.5c37.333 0 89.833 -13.833 157.5 -41.5s118.834 -41.5 153.501 -41.5c20.667 0 38.834 10.667 54.501 32s23.5 47.333 23.5 78z" />
    <glyph glyph-name="itilde" unicode="&#x129;" horiz-adv-x="584" 
d="M462 0h-339v1082h339v-1082zM683 1518c0 -64 -20.002 -118.833 -60.002 -164.5s-90 -68.5 -150 -68.5c-46.667 0 -101.5 14 -164.5 42s-111.833 42 -146.5 42c-22 0 -40.333 -10.833 -55 -32.5s-22 -47.5 -22 -77.5l-178 50c0 62.667 19.833 117.167 59.5 163.5
s89.5 69.5 149.5 69.5c37.333 0 89.833 -13.833 157.5 -41.5s118.834 -41.5 153.501 -41.5c20.667 0 38.834 10.667 54.501 32s23.5 47.333 23.5 78z" />
    <glyph glyph-name="Imacron" unicode="&#x12a;" horiz-adv-x="611" 
d="M474 0h-337v1456h337v-1456zM674 1601h-734v173h734v-173z" />
    <glyph glyph-name="imacron" unicode="&#x12b;" horiz-adv-x="584" 
d="M462 0h-339v1082h339v-1082zM662 1260h-734v173h734v-173z" />
    <glyph glyph-name="Ibreve" unicode="&#x12c;" horiz-adv-x="611" 
d="M474 0h-337v1456h337v-1456zM669 1908l2.00195 -6c3.33301 -88.667 -28.334 -161 -95.001 -217s-156 -84 -268 -84c-112.667 0 -202.334 28 -269.001 84s-98 128.333 -94 217l2 6h243c0 -31.333 9.5 -57 28.5 -77s48.833 -30 89.5 -30c40 0 69.5 10 88.5 30
s28.5 45.667 28.5 77h244z" />
    <glyph glyph-name="ibreve" unicode="&#x12d;" horiz-adv-x="584" 
d="M462 0h-339v1082h339v-1082zM657 1565l2.00195 -6c3.33301 -88.667 -28.334 -161 -95.001 -217s-156 -84 -268 -84c-112.667 0 -202.334 28 -269.001 84s-98 128.333 -94 217l2 6h243c0 -31.333 9.5 -57 28.5 -77s48.833 -30 89.5 -30c40 0 69.5 10 88.5 30
s28.5 45.667 28.5 77h244z" />
    <glyph glyph-name="Iogonek" unicode="&#x12e;" horiz-adv-x="611" 
d="M474 0h-337v1456h337v-1456zM360 0c-29.333 -35.333 -49.999 -63.667 -61.999 -85s-18 -47.666 -18 -78.999c0 -12.667 4.66699 -25.667 14 -39s31.333 -20 66 -20c18.667 0 35 1.66699 49 5s28 7.66602 42 12.999l36 -168c-24 -12.667 -50.833 -23.167 -80.5 -31.5
s-64.834 -12.5 -105.501 -12.5c-76.667 0 -139.667 18.833 -189 56.5s-74 90.167 -74 157.5c0 50 13 97.5 39 142.5s66.333 85.167 121 120.5z" />
    <glyph glyph-name="iogonek" unicode="&#x12f;" horiz-adv-x="561" 
d="M450 0h-339v1082h339v-1082zM450 1333h-339v227h339v-227zM336 0c-29.333 -35.333 -49.999 -63.667 -61.999 -85s-18 -47.666 -18 -78.999c0 -12.667 4.66699 -25.667 14 -39s31.333 -20 66 -20c18.667 0 35 1.66699 49 5s28 7.66602 42 12.999l36 -168
c-24 -12.667 -50.833 -23.167 -80.5 -31.5s-64.834 -12.5 -105.501 -12.5c-76.667 0 -139.667 18.833 -189 56.5s-74 90.167 -74 157.5c0 50 13 97.5 39 142.5s66.333 85.167 121 120.5z" />
    <glyph glyph-name="Idotaccent" unicode="&#x130;" horiz-adv-x="611" 
d="M474 0h-337v1456h337v-1456zM475 1602h-347v260h347v-260z" />
    <glyph glyph-name="dotlessi" unicode="&#x131;" horiz-adv-x="584" 
d="M462 0h-339v1082h339v-1082z" />
    <glyph glyph-name="IJ" unicode="&#x132;" horiz-adv-x="1799" 
d="M474 0h-337v1456h337v-1456zM1348 1456h337.001v-999c0 -146.667 -48.167 -263 -144.5 -349s-216.833 -129 -361.5 -129c-158 0 -282.833 38 -374.5 114s-135.834 188.333 -132.501 337l2 6h330c0 -70.667 16.333 -121.167 49 -151.5s74.667 -45.5 126 -45.5
c46 0 85.667 19 119 57s50 91.667 50 161v999z" />
    <glyph glyph-name="ij" unicode="&#x133;" horiz-adv-x="1109" 
d="M450 0h-339v1082h339v-1082zM450 1333h-339v227h339v-227zM1015 1082l-0.00195312 -1097c0 -134.667 -36.167 -238.667 -108.5 -312s-172.833 -110 -301.5 -110c-29.333 0 -56.166 1.33301 -80.499 4s-50.5 7 -78.5 13l14 255c19.333 -4 35.833 -7 49.5 -9
s30.834 -3 51.501 -3c37.333 0 65.833 13.667 85.5 41s29.5 67.666 29.5 120.999v1097h339zM1009 1334h-339v226h339v-226z" />
    <glyph glyph-name="Jcircumflex" unicode="&#x134;" horiz-adv-x="1188" 
d="M737 1456h337.001v-999c0 -146.667 -48.167 -263 -144.5 -349s-216.833 -129 -361.5 -129c-158 0 -282.833 38 -374.5 114s-135.834 188.333 -132.501 337l2 6h330c0 -70.667 16.333 -121.167 49 -151.5s74.667 -45.5 126 -45.5c46 0 85.667 19 119 57s50 91.667 50 161
v999zM1285 1609v-22h-265l-137 126l-136 -126h-260v26l300 240h193z" />
    <glyph glyph-name="jcircumflex" unicode="&#x135;" horiz-adv-x="604" 
d="M476 1082v-1097c0 -134.667 -36 -238.667 -108 -312s-172.333 -110 -301 -110c-30 0 -57 1.33301 -81 4s-50 7 -78 13l15 255c18.667 -4 34.667 -7 48 -9s30 -3 50 -3c38 0 67.167 13.833 87.5 41.5s30.5 67.834 30.5 120.501v1097h337zM679 1268v-22h-265l-137 126
l-136 -126h-260v26l300 240h193z" />
    <glyph glyph-name="Kcommaaccent" unicode="&#x136;" horiz-adv-x="1325" 
d="M609 584h-156v-584h-339v1456h339v-570h115l320 570h420l-451 -659l490 -797h-412zM748 -261l-133 -235h-134l61 245v161h206v-171z" />
    <glyph glyph-name="kcommaaccent" unicode="&#x137;" horiz-adv-x="1119" 
d="M491 430h-57v-430h-338v1560h338v-875h45l231 397h387l-336 -489l389 -593h-385zM678 -261l-133 -235h-134l61 245v161h206v-171z" />
    <glyph glyph-name="kgreenlandic" unicode="&#x138;" horiz-adv-x="1242" 
d="M575 378h-120v-378h-337v1082h337v-389h90l225 389h432l-346 -500l354 -582h-434z" />
    <glyph glyph-name="Lacute" unicode="&#x139;" horiz-adv-x="1109" 
d="M453 260h627v-260h-966v1456h339v-1196zM317 1827h348l2 -6l-280 -260h-276z" />
    <glyph glyph-name="lacute" unicode="&#x13a;" horiz-adv-x="561" 
d="M450 0h-339v1560h339v-1560zM309 1892h348l2 -6l-280 -260h-276z" />
    <glyph glyph-name="Lcommaaccent" unicode="&#x13b;" horiz-adv-x="1109" 
d="M453 260h627v-260h-966v1456h339v-1196zM694 -261l-133 -235h-134l61 245v161h206v-171z" />
    <glyph glyph-name="lcommaaccent" unicode="&#x13c;" horiz-adv-x="561" 
d="M450 0h-339v1560h339v-1560zM377 -261l-133 -235h-134l61 245v161h206v-171z" />
    <glyph glyph-name="Lcaron" unicode="&#x13d;" horiz-adv-x="1109" 
d="M453 260h627v-260h-966v1456h339v-1196zM898 1289l-133 -235h-134l61 245v161h206v-171z" />
    <glyph glyph-name="lcaron" unicode="&#x13e;" horiz-adv-x="711" 
d="M450 0h-339v1560h339v-1560zM801 1388l-133 -235h-134l61 245v161h206v-171z" />
    <glyph glyph-name="Ldot" unicode="&#x13f;" horiz-adv-x="1109" 
d="M453 260h627v-260h-966v1456h339v-1196zM906 678h-347v260h347v-260z" />
    <glyph glyph-name="ldot" unicode="&#x140;" horiz-adv-x="781" 
d="M450 0h-339v1560h339v-1560zM876 609h-347v260h347v-260z" />
    <glyph glyph-name="Lslash" unicode="&#x141;" horiz-adv-x="1022" 
d="M444 902l234 65v-208l-234 -65v-434h627v-260h-966v601l-108 -29v208l108 29v647h339v-554z" />
    <glyph glyph-name="lslash" unicode="&#x142;" horiz-adv-x="611" 
d="M471 925l136 42v-208l-136 -42v-717h-339v611l-128 -39v208l128 39v741h339v-635z" />
    <glyph glyph-name="Nacute" unicode="&#x143;" horiz-adv-x="1444" 
d="M1329 0h-337l-533 928l-6 -2v-926h-339v1456h339l533 -928l6 2v926h337v-1456zM751 1827h348l2 -6l-280 -260h-276z" />
    <glyph glyph-name="nacute" unicode="&#x144;" 
d="M407 1082l12.998 -152c35.333 54 79 96.167 131 126.5s110 45.5 174 45.5c106 0 188.833 -34.333 248.5 -103s89.5 -178 89.5 -328v-671h-338v672c0 62 -12.833 105.833 -38.5 131.5s-63.5 38.5 -113.5 38.5c-31.333 0 -59.166 -5.66699 -83.499 -17
s-45.166 -27 -62.499 -47v-778h-337v1082h317zM604.998 1505h348l2 -6l-280 -260h-276z" />
    <glyph glyph-name="Ncommaaccent" unicode="&#x145;" horiz-adv-x="1444" 
d="M1329 0h-337l-533 928l-6 -2v-926h-339v1456h339l533 -928l6 2v926h337v-1456zM819 -261l-133 -235h-134l61 245v161h206v-171z" />
    <glyph glyph-name="ncommaaccent" unicode="&#x146;" 
d="M407 1082l12.998 -152c35.333 54 79 96.167 131 126.5s110 45.5 174 45.5c106 0 188.833 -34.333 248.5 -103s89.5 -178 89.5 -328v-671h-338v672c0 62 -12.833 105.833 -38.5 131.5s-63.5 38.5 -113.5 38.5c-31.333 0 -59.166 -5.66699 -83.499 -17
s-45.166 -27 -62.499 -47v-778h-337v1082h317zM672.998 -261l-133 -235h-134l61 245v161h206v-171z" />
    <glyph glyph-name="Ncaron" unicode="&#x147;" horiz-adv-x="1444" 
d="M1329 0h-337l-533 928l-6 -2v-926h-339v1456h339l533 -928l6 2v926h337v-1456zM722 1761l102 116h309v-16l-292 -260h-239l-294 262v14h312z" />
    <glyph glyph-name="ncaron" unicode="&#x148;" 
d="M407 1082l12.998 -152c35.333 54 79 96.167 131 126.5s110 45.5 174 45.5c106 0 188.833 -34.333 248.5 -103s89.5 -178 89.5 -328v-671h-338v672c0 62 -12.833 105.833 -38.5 131.5s-63.5 38.5 -113.5 38.5c-31.333 0 -59.166 -5.66699 -83.499 -17
s-45.166 -27 -62.499 -47v-778h-337v1082h317zM575.998 1439l102 116h309v-16l-292 -260h-239l-294 262v14h312z" />
    <glyph glyph-name="napostrophe" unicode="&#x149;" 
d="M407 1082l12.998 -152c35.333 54 79 96.167 131 126.5s110 45.5 174 45.5c106 0 188.833 -34.333 248.5 -103s89.5 -178 89.5 -328v-671h-338v672c0 62 -12.833 105.833 -38.5 131.5s-63.5 38.5 -113.5 38.5c-31.333 0 -59.166 -5.66699 -83.499 -17
s-45.166 -27 -62.499 -47v-778h-337v1082h317zM243.998 1388l-133 -235h-134l61 245v161h206v-171z" />
    <glyph glyph-name="Eng" unicode="&#x14a;" horiz-adv-x="1449" 
d="M1331 1456l0.000976562 -1471c0 -134.667 -36 -238.667 -108 -312s-172.333 -110 -301 -110c-30 0 -57.333 1.33301 -82 4s-50.667 7 -78 13l14 255c18.667 -4 34.667 -7 48 -9s30.666 -3 51.999 -3c37.333 0 66.333 13.833 87 41.5s31 67.834 31 120.501v15l-533 916
l-6 -2v-914h-338v1456h338l533 -915l6 2v913h337z" />
    <glyph glyph-name="eng" unicode="&#x14b;" 
d="M407 1082l13.002 -154.002c36 54.667 80.167 97.334 132.5 128.001s110.166 46 173.499 46c106 0 188.833 -36 248.5 -108s89.5 -186.333 89.5 -343v-666c0 -134.667 -36 -238.667 -108 -312s-172.333 -110 -301 -110c-30 0 -57.333 1.33301 -82 4s-50.667 7 -78 13
l14 255c19.333 -4 35.333 -7 48 -9s30 -3 52 -3c37.333 0 66.166 13.833 86.499 41.5s30.5 67.834 30.5 120.501v667c0 68.667 -11 117.5 -33 146.5s-54 43.5 -96 43.5c-36.667 0 -69.167 -6.5 -97.5 -19.5s-52.5 -31.167 -72.5 -54.5v-768h-337v1082h317z" />
    <glyph glyph-name="Omacron" unicode="&#x14c;" horiz-adv-x="1400" 
d="M1318 597c0 -179.333 -56.833 -327.166 -170.5 -443.499s-262.167 -174.5 -445.5 -174.5c-184.667 0 -334.334 58.167 -449.001 174.5s-172 264.166 -172 443.499v262c0 178.667 57.167 326.334 171.5 443.001s263.5 175 447.5 175
c182.667 0 331.334 -58.333 446.001 -175s172 -264.334 172 -443.001v-262zM981 861c0 104 -24.502 189.333 -73.502 256s-118.167 100 -207.5 100c-91.333 0 -161.166 -33.167 -209.499 -99.5s-72.5 -151.833 -72.5 -256.5v-264c0 -105.333 24.5 -191.333 73.5 -258
s119.167 -100 210.5 -100c88.667 0 157.334 33.333 206.001 100s73 152.667 73 258v264zM1067 1622h-734v173h734v-173z" />
    <glyph glyph-name="omacron" unicode="&#x14d;" 
d="M51 551c0 162.667 46 295.167 138 397.5s220.333 153.5 385 153.5c165.333 0 294 -51.167 386 -153.5s138 -234.833 138 -397.5v-21c0 -163.333 -46 -296 -138 -398s-220 -153 -384 -153c-166 0 -295 51 -387 153s-138 234.667 -138 398v21zM389 530
c0 -90.667 14.167 -161.834 42.5 -213.501s76.5 -77.5 144.5 -77.5c66 0 113.333 26 142 78s43 123 43 213v21c0 88 -14.333 158.5 -43 211.5s-76.667 79.5 -144 79.5c-66.667 0 -114.167 -26.667 -142.5 -80s-42.5 -123.666 -42.5 -210.999v-21zM942 1281h-734v173h734
v-173z" />
    <glyph glyph-name="Obreve" unicode="&#x14e;" horiz-adv-x="1400" 
d="M1318 597c0 -179.333 -56.833 -327.166 -170.5 -443.499s-262.167 -174.5 -445.5 -174.5c-184.667 0 -334.334 58.167 -449.001 174.5s-172 264.166 -172 443.499v262c0 178.667 57.167 326.334 171.5 443.001s263.5 175 447.5 175
c182.667 0 331.334 -58.333 446.001 -175s172 -264.334 172 -443.001v-262zM981 861c0 104 -24.502 189.333 -73.502 256s-118.167 100 -207.5 100c-91.333 0 -161.166 -33.167 -209.499 -99.5s-72.5 -151.833 -72.5 -256.5v-264c0 -105.333 24.5 -191.333 73.5 -258
s119.167 -100 210.5 -100c88.667 0 157.334 33.333 206.001 100s73 152.667 73 258v264zM1062 1929l2.00195 -6c3.33301 -88.667 -28.334 -161 -95.001 -217s-156 -84 -268 -84c-112.667 0 -202.334 28 -269.001 84s-98 128.333 -94 217l2 6h243c0 -31.333 9.5 -57 28.5 -77
s48.833 -30 89.5 -30c40 0 69.5 10 88.5 30s28.5 45.667 28.5 77h244z" />
    <glyph glyph-name="obreve" unicode="&#x14f;" 
d="M51 551c0 162.667 46 295.167 138 397.5s220.333 153.5 385 153.5c165.333 0 294 -51.167 386 -153.5s138 -234.833 138 -397.5v-21c0 -163.333 -46 -296 -138 -398s-220 -153 -384 -153c-166 0 -295 51 -387 153s-138 234.667 -138 398v21zM389 530
c0 -90.667 14.167 -161.834 42.5 -213.501s76.5 -77.5 144.5 -77.5c66 0 113.333 26 142 78s43 123 43 213v21c0 88 -14.333 158.5 -43 211.5s-76.667 79.5 -144 79.5c-66.667 0 -114.167 -26.667 -142.5 -80s-42.5 -123.666 -42.5 -210.999v-21zM937 1586l2.00195 -6
c3.33301 -88.667 -28.334 -161 -95.001 -217s-156 -84 -268 -84c-112.667 0 -202.334 28 -269.001 84s-98 128.333 -94 217l2 6h243c0 -31.333 9.5 -57 28.5 -77s48.833 -30 89.5 -30c40 0 69.5 10 88.5 30s28.5 45.667 28.5 77h244z" />
    <glyph glyph-name="Ohungarumlaut" unicode="&#x150;" horiz-adv-x="1400" 
d="M1318 597c0 -179.333 -56.833 -327.166 -170.5 -443.499s-262.167 -174.5 -445.5 -174.5c-184.667 0 -334.334 58.167 -449.001 174.5s-172 264.166 -172 443.499v262c0 178.667 57.167 326.334 171.5 443.001s263.5 175 447.5 175
c182.667 0 331.334 -58.333 446.001 -175s172 -264.334 172 -443.001v-262zM981 861c0 104 -24.502 189.333 -73.502 256s-118.167 100 -207.5 100c-91.333 0 -161.166 -33.167 -209.499 -99.5s-72.5 -151.833 -72.5 -256.5v-264c0 -105.333 24.5 -191.333 73.5 -258
s119.167 -100 210.5 -100c88.667 0 157.334 33.333 206.001 100s73 152.667 73 258v264zM977.998 1888h302l2 -6l-278 -260h-264l-2 5zM559.998 1888h305l2 -5l-240 -261h-273z" />
    <glyph glyph-name="ohungarumlaut" unicode="&#x151;" 
d="M51 551c0 162.667 46 295.167 138 397.5s220.333 153.5 385 153.5c165.333 0 294 -51.167 386 -153.5s138 -234.833 138 -397.5v-21c0 -163.333 -46 -296 -138 -398s-220 -153 -384 -153c-166 0 -295 51 -387 153s-138 234.667 -138 398v21zM389 530
c0 -90.667 14.167 -161.834 42.5 -213.501s76.5 -77.5 144.5 -77.5c66 0 113.333 26 142 78s43 123 43 213v21c0 88 -14.333 158.5 -43 211.5s-76.667 79.5 -144 79.5c-66.667 0 -114.167 -26.667 -142.5 -80s-42.5 -123.666 -42.5 -210.999v-21zM853 1545h302l2 -6
l-278 -260h-264l-2 5zM435 1545h305l2 -5l-240 -261h-273z" />
    <glyph glyph-name="OE" unicode="&#x152;" horiz-adv-x="1995" 
d="M1931 0l-921.001 -0.000976562c-61.333 -6.66699 -113.5 -11.834 -156.5 -15.501s-86.833 -5.5 -131.5 -5.5c-186.667 0 -338.167 55.333 -454.5 166s-174.5 254.334 -174.5 431.001v304c0 176.667 57.833 320.334 173.5 431.001s266.834 166 453.501 166
c46 0 92.667 -2 140 -6s97.333 -9 150 -15h923v-260h-675v-313h571v-260h-571v-363h673v-260zM721.999 238.999c32.667 0 65.5 1 98.5 3s65.833 5.33301 98.5 10v951c-34.667 4 -68.5 7.33301 -101.5 10s-65.5 4 -97.5 4c-92 0 -163.333 -28.5 -214 -85.5
s-76 -140.167 -76 -249.5v-306c0 -110 25.667 -193.667 77 -251s123 -86 215 -86z" />
    <glyph glyph-name="oe" unicode="&#x153;" horiz-adv-x="1845" 
d="M75 551c0 162.667 45.8359 295.167 137.503 397.5s219.834 153.5 384.501 153.5c73.333 0 140 -10.833 200 -32.5s112.333 -52.167 157 -91.5c42 40 91.5 70.667 148.5 92s120.833 32 191.5 32c146.667 0 261.667 -44 345 -132s125 -207.333 125 -358v-177h-617l-2 -6
c7.33301 -55.333 29.833 -100.833 67.5 -136.5s88.5 -53.5 152.5 -53.5c63.333 0 114.166 5 152.499 15s86.833 27.333 145.5 52l80 -206c-46.667 -34.667 -107.5 -63.5 -182.5 -86.5s-155.5 -34.5 -241.5 -34.5c-72.667 0 -139.334 11 -200.001 33s-113.667 53.667 -159 95
c-44.667 -41.333 -97.334 -73 -158.001 -95s-128.334 -33 -203.001 -33c-165.333 0 -294 51 -386 153s-138 234.667 -138 398v21zM412.003 530c0 -90.667 14.167 -161.834 42.5 -213.501s76.5 -77.5 144.5 -77.5c66 0 113.333 26 142 78s43 123 43 213v21
c0 88 -14.333 158.5 -43 211.5s-76.667 79.5 -144 79.5c-66 0 -113.333 -26.667 -142 -80s-43 -123.666 -43 -210.999v-21zM1294 842c-48 0 -84.168 -17.333 -108.501 -52s-39.166 -81 -44.499 -139l3 -5h291v26c0 54.667 -11.5 96.667 -34.5 126s-58.5 44 -106.5 44z" />
    <glyph glyph-name="Racute" unicode="&#x154;" horiz-adv-x="1352" 
d="M453 558v-558.001h-339v1456h560c168.667 0 302.334 -39 401.001 -117s148 -184.667 148 -320c0 -75.333 -19.833 -140 -59.5 -194s-98.167 -98 -175.5 -132c89.333 -25.333 153.5 -67.5 192.5 -126.5s58.5 -132.5 58.5 -220.5v-92c0 -38 5.66699 -81.333 17 -130
s31 -83.334 59 -104.001v-20h-348c-26.667 20.667 -44.167 57.334 -52.5 110.001s-12.5 101.334 -12.5 146.001v88c0 69.333 -18.333 122.333 -55 159s-90.334 55 -161.001 55h-233zM453 817.999l223 0.000976562c68 0 120 15.5 156 46.5s54 75.5 54 133.5
c0 59.333 -18.5 107.166 -55.5 143.499s-89.167 54.5 -156.5 54.5h-221v-378zM664 1827h348l2 -6l-280 -260h-276z" />
    <glyph glyph-name="racute" unicode="&#x155;" horiz-adv-x="757" 
d="M707 784l-123 0.999023c-38.667 0 -70.334 -6.5 -95.001 -19.5s-43 -31.5 -55 -55.5v-710h-338v1082h318l12 -159c22.667 56.667 52.667 100.667 90 132s81 47 131 47c16 0 32.333 -1.16699 49 -3.5s31.334 -5.16602 44.001 -8.49902zM440 1505h348l2 -6l-280 -260h-276z
" />
    <glyph glyph-name="Rcommaaccent" unicode="&#x156;" horiz-adv-x="1352" 
d="M453 558v-558.001h-339v1456h560c168.667 0 302.334 -39 401.001 -117s148 -184.667 148 -320c0 -75.333 -19.833 -140 -59.5 -194s-98.167 -98 -175.5 -132c89.333 -25.333 153.5 -67.5 192.5 -126.5s58.5 -132.5 58.5 -220.5v-92c0 -38 5.66699 -81.333 17 -130
s31 -83.334 59 -104.001v-20h-348c-26.667 20.667 -44.167 57.334 -52.5 110.001s-12.5 101.334 -12.5 146.001v88c0 69.333 -18.333 122.333 -55 159s-90.334 55 -161.001 55h-233zM453 817.999l223 0.000976562c68 0 120 15.5 156 46.5s54 75.5 54 133.5
c0 59.333 -18.5 107.166 -55.5 143.499s-89.167 54.5 -156.5 54.5h-221v-378zM732 -261l-133 -235h-134l61 245v161h206v-171z" />
    <glyph glyph-name="rcommaaccent" unicode="&#x157;" horiz-adv-x="757" 
d="M707 784l-123 0.999023c-38.667 0 -70.334 -6.5 -95.001 -19.5s-43 -31.5 -55 -55.5v-710h-338v1082h318l12 -159c22.667 56.667 52.667 100.667 90 132s81 47 131 47c16 0 32.333 -1.16699 49 -3.5s31.334 -5.16602 44.001 -8.49902zM375 -261.001l-133 -235h-134
l61 245v161h206v-171z" />
    <glyph glyph-name="Rcaron" unicode="&#x158;" horiz-adv-x="1352" 
d="M453 558v-558.001h-339v1456h560c168.667 0 302.334 -39 401.001 -117s148 -184.667 148 -320c0 -75.333 -19.833 -140 -59.5 -194s-98.167 -98 -175.5 -132c89.333 -25.333 153.5 -67.5 192.5 -126.5s58.5 -132.5 58.5 -220.5v-92c0 -38 5.66699 -81.333 17 -130
s31 -83.334 59 -104.001v-20h-348c-26.667 20.667 -44.167 57.334 -52.5 110.001s-12.5 101.334 -12.5 146.001v88c0 69.333 -18.333 122.333 -55 159s-90.334 55 -161.001 55h-233zM453 817.999l223 0.000976562c68 0 120 15.5 156 46.5s54 75.5 54 133.5
c0 59.333 -18.5 107.166 -55.5 143.499s-89.167 54.5 -156.5 54.5h-221v-378zM635 1761l102 116h309v-16l-292 -260h-239l-294 262v14h312z" />
    <glyph glyph-name="rcaron" unicode="&#x159;" horiz-adv-x="757" 
d="M707 784l-123 0.999023c-38.667 0 -70.334 -6.5 -95.001 -19.5s-43 -31.5 -55 -55.5v-710h-338v1082h318l12 -159c22.667 56.667 52.667 100.667 90 132s81 47 131 47c16 0 32.333 -1.16699 49 -3.5s31.334 -5.16602 44.001 -8.49902zM413 1439l102 116h309v-16
l-292 -260h-239l-294 262v14h312z" />
    <glyph glyph-name="Sacute" unicode="&#x15a;" horiz-adv-x="1293" 
d="M887 386c0 51.333 -17 91.0029 -51 119.003s-95 57.667 -183 89c-184 58 -320.333 120.167 -409 186.5s-133 162.166 -133 287.499c0 122 52.833 220.667 158.5 296s239.834 113 402.501 113c161.333 0 293.5 -41.5 396.5 -124.5s152.833 -189.833 149.5 -320.5l-2 -6
h-328c0 58 -19.667 105.167 -59 141.5s-93.666 54.5 -162.999 54.5c-68 0 -121.333 -15 -160 -45s-58 -67 -58 -111c0 -42.667 19.5 -76.834 58.5 -102.501s112.167 -57.834 219.5 -96.501c165.333 -49.333 289.833 -110 373.5 -182s125.5 -171 125.5 -297
c0 -128 -49.833 -228.167 -149.5 -300.5s-231.834 -108.5 -396.501 -108.5c-165.333 0 -308.333 41.5 -429 124.5s-179.334 202.5 -176.001 358.5l2 6h329c0 -84 22.667 -144 68 -180s114 -54 206 -54c70 0 122.167 14 156.5 42s51.5 64.667 51.5 110zM686 1848h348l2 -6
l-280 -260h-276z" />
    <glyph glyph-name="sacute" unicode="&#x15b;" horiz-adv-x="1048" 
d="M660 304c0 26.667 -15.167 50.501 -45.5 71.501s-85.5 39.833 -165.5 56.5c-126 24.667 -221 63 -285 115s-96 123 -96 213c0 95.333 40 176.166 120 242.499s188.333 99.5 325 99.5c144 0 258.667 -32.167 344 -96.5s126 -147.5 122 -249.5l-2 -6h-328
c0 42.667 -10.833 75 -32.5 97s-56.5 33 -104.5 33c-35.333 0 -65 -9.66699 -89 -29s-36 -44 -36 -74c0 -28.667 13.833 -53 41.5 -73s83.5 -38 167.5 -54c132 -26 229.833 -64.833 293.5 -116.5s95.5 -124.834 95.5 -219.501c0 -97.333 -43.167 -177.5 -129.5 -240.5
s-200.5 -94.5 -342.5 -94.5c-147.333 0 -263.833 37.333 -349.5 112s-126.5 158 -122.5 250l2 6h306c1.33301 -51.333 16.833 -88.333 46.5 -111s71.834 -34 126.501 -34c45.333 0 79.666 8.83301 102.999 26.5s35 42.834 35 75.501zM541 1505h348l2 -6l-280 -260h-276z" />
    <glyph glyph-name="Scircumflex" unicode="&#x15c;" horiz-adv-x="1293" 
d="M887 386c0 51.333 -17 91.0029 -51 119.003s-95 57.667 -183 89c-184 58 -320.333 120.167 -409 186.5s-133 162.166 -133 287.499c0 122 52.833 220.667 158.5 296s239.834 113 402.501 113c161.333 0 293.5 -41.5 396.5 -124.5s152.833 -189.833 149.5 -320.5l-2 -6
h-328c0 58 -19.667 105.167 -59 141.5s-93.666 54.5 -162.999 54.5c-68 0 -121.333 -15 -160 -45s-58 -67 -58 -111c0 -42.667 19.5 -76.834 58.5 -102.501s112.167 -57.834 219.5 -96.501c165.333 -49.333 289.833 -110 373.5 -182s125.5 -171 125.5 -297
c0 -128 -49.833 -228.167 -149.5 -300.5s-231.834 -108.5 -396.501 -108.5c-165.333 0 -308.333 41.5 -429 124.5s-179.334 202.5 -176.001 358.5l2 6h329c0 -84 22.667 -144 68 -180s114 -54 206 -54c70 0 122.167 14 156.5 42s51.5 64.667 51.5 110zM1059 1630v-22h-265
l-137 126l-136 -126h-260v26l300 240h193z" />
    <glyph glyph-name="scircumflex" unicode="&#x15d;" horiz-adv-x="1048" 
d="M660 304c0 26.667 -15.167 50.501 -45.5 71.501s-85.5 39.833 -165.5 56.5c-126 24.667 -221 63 -285 115s-96 123 -96 213c0 95.333 40 176.166 120 242.499s188.333 99.5 325 99.5c144 0 258.667 -32.167 344 -96.5s126 -147.5 122 -249.5l-2 -6h-328
c0 42.667 -10.833 75 -32.5 97s-56.5 33 -104.5 33c-35.333 0 -65 -9.66699 -89 -29s-36 -44 -36 -74c0 -28.667 13.833 -53 41.5 -73s83.5 -38 167.5 -54c132 -26 229.833 -64.833 293.5 -116.5s95.5 -124.834 95.5 -219.501c0 -97.333 -43.167 -177.5 -129.5 -240.5
s-200.5 -94.5 -342.5 -94.5c-147.333 0 -263.833 37.333 -349.5 112s-126.5 158 -122.5 250l2 6h306c1.33301 -51.333 16.833 -88.333 46.5 -111s71.834 -34 126.501 -34c45.333 0 79.666 8.83301 102.999 26.5s35 42.834 35 75.501zM916 1287v-22h-265l-137 126l-136 -126
h-260v26l300 240h193z" />
    <glyph glyph-name="Scedilla" unicode="&#x15e;" horiz-adv-x="1293" 
d="M887 386c0 51.333 -17 91.0029 -51 119.003s-95 57.667 -183 89c-184 58 -320.333 120.167 -409 186.5s-133 162.166 -133 287.499c0 122 52.833 220.667 158.5 296s239.834 113 402.501 113c161.333 0 293.5 -41.5 396.5 -124.5s152.833 -189.833 149.5 -320.5l-2 -6
h-328c0 58 -19.667 105.167 -59 141.5s-93.666 54.5 -162.999 54.5c-68 0 -121.333 -15 -160 -45s-58 -67 -58 -111c0 -42.667 19.5 -76.834 58.5 -102.501s112.167 -57.834 219.5 -96.501c165.333 -49.333 289.833 -110 373.5 -182s125.5 -171 125.5 -297
c0 -128 -49.833 -228.167 -149.5 -300.5s-231.834 -108.5 -396.501 -108.5c-165.333 0 -308.333 41.5 -429 124.5s-179.334 202.5 -176.001 358.5l2 6h329c0 -84 22.667 -144 68 -180s114 -54 206 -54c70 0 122.167 14 156.5 42s51.5 64.667 51.5 110zM814 2.00293
l-10.001 -61.001c42.667 -7.33301 78.334 -24.666 107.001 -51.999s43 -67.666 43 -120.999c0 -76 -32.333 -136.333 -97 -181s-157 -67 -277 -67l-7 186c27.333 0 48.833 6.33301 64.5 19s23.5 32 23.5 58c0 25.333 -10.167 43.166 -30.5 53.499
s-54.833 16.833 -103.5 19.5l31 146h256z" />
    <glyph glyph-name="scedilla" unicode="&#x15f;" horiz-adv-x="1048" 
d="M660 304c0 26.667 -15.167 50.501 -45.5 71.501s-85.5 39.833 -165.5 56.5c-126 24.667 -221 63 -285 115s-96 123 -96 213c0 95.333 40 176.166 120 242.499s188.333 99.5 325 99.5c144 0 258.667 -32.167 344 -96.5s126 -147.5 122 -249.5l-2 -6h-328
c0 42.667 -10.833 75 -32.5 97s-56.5 33 -104.5 33c-35.333 0 -65 -9.66699 -89 -29s-36 -44 -36 -74c0 -28.667 13.833 -53 41.5 -73s83.5 -38 167.5 -54c132 -26 229.833 -64.833 293.5 -116.5s95.5 -124.834 95.5 -219.501c0 -97.333 -43.167 -177.5 -129.5 -240.5
s-200.5 -94.5 -342.5 -94.5c-147.333 0 -263.833 37.333 -349.5 112s-126.5 158 -122.5 250l2 6h306c1.33301 -51.333 16.833 -88.333 46.5 -111s71.834 -34 126.501 -34c45.333 0 79.666 8.83301 102.999 26.5s35 42.834 35 75.501zM643 2.00098l-10.001 -61.001
c42.667 -7.33301 78.334 -24.666 107.001 -51.999s43 -67.666 43 -120.999c0 -76 -32.333 -136.333 -97 -181s-157 -67 -277 -67l-7 186c27.333 0 48.833 6.33301 64.5 19s23.5 32 23.5 58c0 25.333 -10.167 43.166 -30.5 53.499s-54.833 16.833 -103.5 19.5l31 146h256z
" />
    <glyph glyph-name="Scaron" unicode="&#x160;" horiz-adv-x="1293" 
d="M887 386c0 51.333 -17 91.0029 -51 119.003s-95 57.667 -183 89c-184 58 -320.333 120.167 -409 186.5s-133 162.166 -133 287.499c0 122 52.833 220.667 158.5 296s239.834 113 402.501 113c161.333 0 293.5 -41.5 396.5 -124.5s152.833 -189.833 149.5 -320.5l-2 -6
h-328c0 58 -19.667 105.167 -59 141.5s-93.666 54.5 -162.999 54.5c-68 0 -121.333 -15 -160 -45s-58 -67 -58 -111c0 -42.667 19.5 -76.834 58.5 -102.501s112.167 -57.834 219.5 -96.501c165.333 -49.333 289.833 -110 373.5 -182s125.5 -171 125.5 -297
c0 -128 -49.833 -228.167 -149.5 -300.5s-231.834 -108.5 -396.501 -108.5c-165.333 0 -308.333 41.5 -429 124.5s-179.334 202.5 -176.001 358.5l2 6h329c0 -84 22.667 -144 68 -180s114 -54 206 -54c70 0 122.167 14 156.5 42s51.5 64.667 51.5 110zM657 1782l102 116h309
v-16l-292 -260h-239l-294 262v14h312z" />
    <glyph glyph-name="scaron" unicode="&#x161;" horiz-adv-x="1048" 
d="M660 304c0 26.667 -15.167 50.501 -45.5 71.501s-85.5 39.833 -165.5 56.5c-126 24.667 -221 63 -285 115s-96 123 -96 213c0 95.333 40 176.166 120 242.499s188.333 99.5 325 99.5c144 0 258.667 -32.167 344 -96.5s126 -147.5 122 -249.5l-2 -6h-328
c0 42.667 -10.833 75 -32.5 97s-56.5 33 -104.5 33c-35.333 0 -65 -9.66699 -89 -29s-36 -44 -36 -74c0 -28.667 13.833 -53 41.5 -73s83.5 -38 167.5 -54c132 -26 229.833 -64.833 293.5 -116.5s95.5 -124.834 95.5 -219.501c0 -97.333 -43.167 -177.5 -129.5 -240.5
s-200.5 -94.5 -342.5 -94.5c-147.333 0 -263.833 37.333 -349.5 112s-126.5 158 -122.5 250l2 6h306c1.33301 -51.333 16.833 -88.333 46.5 -111s71.834 -34 126.501 -34c45.333 0 79.666 8.83301 102.999 26.5s35 42.834 35 75.501zM512 1439l102 116h309v-16l-292 -260
h-239l-294 262v14h312z" />
    <glyph glyph-name="uni0162" unicode="&#x162;" horiz-adv-x="1153" 
d="M1130 1196h-384v-1196h-339v1196h-381v260h1104v-260zM676 -261l-133 -235h-134l61 245v161h206v-171z" />
    <glyph glyph-name="uni0163" unicode="&#x163;" horiz-adv-x="742" 
d="M496 1351v-268.999h183v-234h-183v-496c0 -38.667 7.83301 -66.5 23.5 -83.5s36.834 -25.5 63.501 -25.5c21.333 0 38.166 0.666992 50.499 2s28.166 4 47.499 8l24 -250c-37.333 -8.66699 -71 -14.834 -101 -18.501s-65.333 -5.5 -106 -5.5
c-111.333 0 -195.666 29.667 -252.999 89s-86 153.333 -86 282v498h-152v234h152v269h337zM527 -270.999l-133 -235h-134l61 245v161h206v-171z" />
    <glyph glyph-name="Tcaron" unicode="&#x164;" horiz-adv-x="1153" 
d="M1130 1196h-384v-1196h-339v1196h-381v260h1104v-260zM579 1761l102 116h309v-16l-292 -260h-239l-294 262v14h312z" />
    <glyph glyph-name="tcaron" unicode="&#x165;" horiz-adv-x="782" 
d="M496 1351v-268.999h183v-234h-183v-496c0 -38.667 7.83301 -66.5 23.5 -83.5s36.834 -25.5 63.501 -25.5c21.333 0 38.166 0.666992 50.499 2s28.166 4 47.499 8l24 -250c-37.333 -8.66699 -71 -14.834 -101 -18.501s-65.333 -5.5 -106 -5.5
c-111.333 0 -195.666 29.667 -252.999 89s-86 153.333 -86 282v498h-152v234h152v269h337zM879 1418l-133 -235h-134l61 245v161h206v-171z" />
    <glyph glyph-name="Tbar" unicode="&#x166;" horiz-adv-x="1153" 
d="M931 723h-185v-723h-339v723h-162v191h162v282h-381v260h1104v-260h-384v-282h185v-191z" />
    <glyph glyph-name="tbar" unicode="&#x167;" horiz-adv-x="742" 
d="M496 1351v-268.999h183v-234h-183v-150h185v-191h-185v-155c0 -38.667 7.83301 -66.5 23.5 -83.5s36.834 -25.5 63.501 -25.5c21.333 0 38.166 0.666992 50.499 2s28.166 4 47.499 8l24 -250c-37.333 -8.66699 -71 -14.834 -101 -18.501s-65.333 -5.5 -106 -5.5
c-111.333 0 -195.666 29.667 -252.999 89s-86 153.333 -86 282v157h-164v191h164v150h-152v234h152v269h337z" />
    <glyph glyph-name="Utilde" unicode="&#x168;" horiz-adv-x="1417" 
d="M1309 1456l0.000976562 -954c0 -166 -55.167 -294.667 -165.5 -386s-254.833 -137 -433.5 -137c-180.667 0 -326.334 45.667 -437.001 137s-166 220 -166 386v954h339v-954c0 -89.333 23 -155.5 69 -198.5s111 -64.5 195 -64.5c83.333 0 147.5 21.333 192.5 64
s67.5 109 67.5 199v954h339zM1096 1861c0 -64 -20.002 -118.833 -60.002 -164.5s-90 -68.5 -150 -68.5c-46.667 0 -101.5 14 -164.5 42s-111.833 42 -146.5 42c-22 0 -40.333 -10.833 -55 -32.5s-22 -47.5 -22 -77.5l-178 50c0 62.667 19.833 117.167 59.5 163.5
s89.5 69.5 149.5 69.5c37.333 0 89.833 -13.833 157.5 -41.5s118.834 -41.5 153.501 -41.5c20.667 0 38.834 10.667 54.501 32s23.5 47.333 23.5 78z" />
    <glyph glyph-name="utilde" unicode="&#x169;" 
d="M745 128c-34.667 -48 -77.167 -84.833 -127.5 -110.5s-107.166 -38.5 -170.499 -38.5c-112 0 -199.833 36 -263.5 108s-95.5 183.667 -95.5 335v660h337v-662c0 -60.667 11.5 -106 34.5 -136s55.833 -45 98.5 -45c36 0 67.667 5 95 15s50.666 25 69.999 45v783h338v-1082
h-295zM962 1518c0 -64 -20.002 -118.833 -60.002 -164.5s-90 -68.5 -150 -68.5c-46.667 0 -101.5 14 -164.5 42s-111.833 42 -146.5 42c-22 0 -40.333 -10.833 -55 -32.5s-22 -47.5 -22 -77.5l-178 50c0 62.667 19.833 117.167 59.5 163.5s89.5 69.5 149.5 69.5
c37.333 0 89.833 -13.833 157.5 -41.5s118.834 -41.5 153.501 -41.5c20.667 0 38.834 10.667 54.501 32s23.5 47.333 23.5 78z" />
    <glyph glyph-name="Umacron" unicode="&#x16a;" horiz-adv-x="1417" 
d="M1309 1456l0.000976562 -954c0 -166 -55.167 -294.667 -165.5 -386s-254.833 -137 -433.5 -137c-180.667 0 -326.334 45.667 -437.001 137s-166 220 -166 386v954h339v-954c0 -89.333 23 -155.5 69 -198.5s111 -64.5 195 -64.5c83.333 0 147.5 21.333 192.5 64
s67.5 109 67.5 199v954h339zM1075 1601h-734v173h734v-173z" />
    <glyph glyph-name="umacron" unicode="&#x16b;" 
d="M745 128c-34.667 -48 -77.167 -84.833 -127.5 -110.5s-107.166 -38.5 -170.499 -38.5c-112 0 -199.833 36 -263.5 108s-95.5 183.667 -95.5 335v660h337v-662c0 -60.667 11.5 -106 34.5 -136s55.833 -45 98.5 -45c36 0 67.667 5 95 15s50.666 25 69.999 45v783h338v-1082
h-295zM941 1260h-734v173h734v-173z" />
    <glyph glyph-name="Ubreve" unicode="&#x16c;" horiz-adv-x="1417" 
d="M1309 1456l0.000976562 -954c0 -166 -55.167 -294.667 -165.5 -386s-254.833 -137 -433.5 -137c-180.667 0 -326.334 45.667 -437.001 137s-166 220 -166 386v954h339v-954c0 -89.333 23 -155.5 69 -198.5s111 -64.5 195 -64.5c83.333 0 147.5 21.333 192.5 64
s67.5 109 67.5 199v954h339zM1070 1908l2.00195 -6c3.33301 -88.667 -28.334 -161 -95.001 -217s-156 -84 -268 -84c-112.667 0 -202.334 28 -269.001 84s-98 128.333 -94 217l2 6h243c0 -31.333 9.5 -57 28.5 -77s48.833 -30 89.5 -30c40 0 69.5 10 88.5 30
s28.5 45.667 28.5 77h244z" />
    <glyph glyph-name="ubreve" unicode="&#x16d;" 
d="M745 128c-34.667 -48 -77.167 -84.833 -127.5 -110.5s-107.166 -38.5 -170.499 -38.5c-112 0 -199.833 36 -263.5 108s-95.5 183.667 -95.5 335v660h337v-662c0 -60.667 11.5 -106 34.5 -136s55.833 -45 98.5 -45c36 0 67.667 5 95 15s50.666 25 69.999 45v783h338v-1082
h-295zM936 1565l2.00195 -6c3.33301 -88.667 -28.334 -161 -95.001 -217s-156 -84 -268 -84c-112.667 0 -202.334 28 -269.001 84s-98 128.333 -94 217l2 6h243c0 -31.333 9.5 -57 28.5 -77s48.833 -30 89.5 -30c40 0 69.5 10 88.5 30s28.5 45.667 28.5 77h244z" />
    <glyph glyph-name="Uring" unicode="&#x16e;" horiz-adv-x="1417" 
d="M1309 1456l0.000976562 -954c0 -166 -55.167 -294.667 -165.5 -386s-254.833 -137 -433.5 -137c-180.667 0 -326.334 45.667 -437.001 137s-166 220 -166 386v954h339v-954c0 -89.333 23 -155.5 69 -198.5s111 -64.5 195 -64.5c83.333 0 147.5 21.333 192.5 64
s67.5 109 67.5 199v954h339zM496.001 1741c0 54 20.667 99.667 62 137s92.333 56 153 56c59.333 0 109.333 -18.667 150 -56s61 -83 61 -137c0 -54.667 -20.333 -99.834 -61 -135.501s-90.667 -53.5 -150 -53.5c-61.333 0 -112.5 17.833 -153.5 53.5
s-61.5 80.834 -61.5 135.501zM617.001 1741c0 -28 8.83301 -50.667 26.5 -68s40.167 -26 67.5 -26c26.667 0 48.167 8.5 64.5 25.5s24.5 39.833 24.5 68.5s-8.16699 51.834 -24.5 69.501s-37.833 26.5 -64.5 26.5c-27.333 0 -49.833 -8.83301 -67.5 -26.5
s-26.5 -40.834 -26.5 -69.501z" />
    <glyph glyph-name="uring" unicode="&#x16f;" 
d="M745 128c-34.667 -48 -77.167 -84.833 -127.5 -110.5s-107.166 -38.5 -170.499 -38.5c-112 0 -199.833 36 -263.5 108s-95.5 183.667 -95.5 335v660h337v-662c0 -60.667 11.5 -106 34.5 -136s55.833 -45 98.5 -45c36 0 67.667 5 95 15s50.666 25 69.999 45v783h338v-1082
h-295zM362 1398c0 54 20.667 99.667 62 137s92.333 56 153 56c59.333 0 109.333 -18.667 150 -56s61 -83 61 -137c0 -54.667 -20.333 -99.834 -61 -135.501s-90.667 -53.5 -150 -53.5c-61.333 0 -112.5 17.833 -153.5 53.5s-61.5 80.834 -61.5 135.501zM483 1398
c0 -28 8.83301 -50.667 26.5 -68s40.167 -26 67.5 -26c26.667 0 48.167 8.5 64.5 25.5s24.5 39.833 24.5 68.5s-8.16699 51.834 -24.5 69.501s-37.833 26.5 -64.5 26.5c-27.333 0 -49.833 -8.83301 -67.5 -26.5s-26.5 -40.834 -26.5 -69.501z" />
    <glyph glyph-name="Uhungarumlaut" unicode="&#x170;" horiz-adv-x="1417" 
d="M1309 1456l0.000976562 -954c0 -166 -55.167 -294.667 -165.5 -386s-254.833 -137 -433.5 -137c-180.667 0 -326.334 45.667 -437.001 137s-166 220 -166 386v954h339v-954c0 -89.333 23 -155.5 69 -198.5s111 -64.5 195 -64.5c83.333 0 147.5 21.333 192.5 64
s67.5 109 67.5 199v954h339zM986.001 1867h302l2 -6l-278 -260h-264l-2 5zM568.001 1867h305l2 -5l-240 -261h-273z" />
    <glyph glyph-name="uhungarumlaut" unicode="&#x171;" 
d="M745 128c-34.667 -48 -77.167 -84.833 -127.5 -110.5s-107.166 -38.5 -170.499 -38.5c-112 0 -199.833 36 -263.5 108s-95.5 183.667 -95.5 335v660h337v-662c0 -60.667 11.5 -106 34.5 -136s55.833 -45 98.5 -45c36 0 67.667 5 95 15s50.666 25 69.999 45v783h338v-1082
h-295zM852 1524h302l2 -6l-278 -260h-264l-2 5zM434 1524h305l2 -5l-240 -261h-273z" />
    <glyph glyph-name="Uogonek" unicode="&#x172;" horiz-adv-x="1417" 
d="M1309 1456l0.000976562 -954c0 -166 -55.167 -294.667 -165.5 -386s-254.833 -137 -433.5 -137c-180.667 0 -326.334 45.667 -437.001 137s-166 220 -166 386v954h339v-954c0 -89.333 23 -155.5 69 -198.5s111 -64.5 195 -64.5c83.333 0 147.5 21.333 192.5 64
s67.5 109 67.5 199v954h339zM806.001 0c-29.333 -35.333 -49.999 -63.667 -61.999 -85s-18 -47.666 -18 -78.999c0 -12.667 4.66699 -25.667 14 -39s31.333 -20 66 -20c18.667 0 35 1.66699 49 5s28 7.66602 42 12.999l36 -168c-24 -12.667 -50.833 -23.167 -80.5 -31.5
s-64.834 -12.5 -105.501 -12.5c-76.667 0 -139.667 18.833 -189 56.5s-74 90.167 -74 157.5c0 50 13 97.5 39 142.5s66.333 85.167 121 120.5z" />
    <glyph glyph-name="uogonek" unicode="&#x173;" 
d="M745 128c-34.667 -48 -77.167 -84.833 -127.5 -110.5s-107.166 -38.5 -170.499 -38.5c-112 0 -199.833 36 -263.5 108s-95.5 183.667 -95.5 335v660h337v-662c0 -60.667 11.5 -106 34.5 -136s55.833 -45 98.5 -45c36 0 67.667 5 95 15s50.666 25 69.999 45v783h338v-1082
h-295zM944 0c-29.333 -35.333 -49.999 -63.667 -61.999 -85s-18 -47.666 -18 -78.999c0 -12.667 4.66699 -25.667 14 -39s31.333 -20 66 -20c18.667 0 35 1.66699 49 5s28 7.66602 42 12.999l36 -168c-24 -12.667 -50.833 -23.167 -80.5 -31.5s-64.834 -12.5 -105.501 -12.5
c-76.667 0 -139.667 18.833 -189 56.5s-74 90.167 -74 157.5c0 50 13 97.5 39 142.5s66.333 85.167 121 120.5z" />
    <glyph glyph-name="Wcircumflex" unicode="&#x174;" horiz-adv-x="1819" 
d="M1285 501h6l191 955h327l-334 -1456h-318l-245 898h-6l-243 -898h-318l-335 1456h328l191 -955h6l257 955h235zM1312 1609v-22h-265l-137 126l-136 -126h-260v26l300 240h193z" />
    <glyph glyph-name="wcircumflex" unicode="&#x175;" horiz-adv-x="1485" 
d="M1025 455h6l117 627h312l-254 -1082h-286l-176 574h-6l-177 -574h-285l-255 1082h312l119 -632h6l176 632h213zM1143 1268v-22h-265l-137 126l-136 -126h-260v26l300 240h193z" />
    <glyph glyph-name="Ycircumflex" unicode="&#x176;" horiz-adv-x="1310" 
d="M651 820h6l290 636h367l-495 -944v-512h-337v529l-485 927h365zM1066 1609v-22h-265l-137 126l-136 -126h-260v26l300 240h193z" />
    <glyph glyph-name="ycircumflex" unicode="&#x177;" horiz-adv-x="1053" 
d="M515 477l1.00098 -8h6l179 613h360l-431 -1243c-33.333 -80 -76.333 -146 -129 -198s-136.334 -78 -251.001 -78c-29.333 0 -53.333 1.83301 -72 5.5s-48 10.5 -88 20.5l41 241l21 -4.5c4.66699 -1 10.667 -1.5 18 -1.5c53.333 0 92.333 7.83301 117 23.5
s43 39.167 55 70.5l27 70l-374 1094h359zM929.001 1268v-22h-265l-137 126l-136 -126h-260v26l300 240h193z" />
    <glyph glyph-name="Ydieresis" unicode="&#x178;" horiz-adv-x="1310" 
d="M651 820h6l290 636h367l-495 -944v-512h-337v529l-485 927h365zM1067 1601h-290v204h290v-204zM552 1601h-290v204h290v-204z" />
    <glyph glyph-name="Zacute" unicode="&#x179;" horiz-adv-x="1196" 
d="M483 260h663v-260h-1079v152l651 1044h-654v260h1073v-146zM626 1830h348l2 -6l-280 -260h-276z" />
    <glyph glyph-name="zacute" unicode="&#x17a;" horiz-adv-x="1053" 
d="M492 260h492v-260h-919v188l481 634h-460v260h888v-182zM554 1484h348l2 -6l-280 -260h-276z" />
    <glyph glyph-name="Zdotaccent" unicode="&#x17b;" horiz-adv-x="1196" 
d="M483 260h663v-260h-1079v152l651 1044h-654v260h1073v-146zM765 1605h-347v260h347v-260z" />
    <glyph glyph-name="zdotaccent" unicode="&#x17c;" horiz-adv-x="1053" 
d="M492 260h492v-260h-919v188l481 634h-460v260h888v-182zM693 1259h-347v260h347v-260z" />
    <glyph glyph-name="Zcaron" unicode="&#x17d;" horiz-adv-x="1196" 
d="M483 260h663v-260h-1079v152l651 1044h-654v260h1073v-146zM597 1764l102 116h309v-16l-292 -260h-239l-294 262v14h312z" />
    <glyph glyph-name="zcaron" unicode="&#x17e;" horiz-adv-x="1053" 
d="M492 260h492v-260h-919v188l481 634h-460v260h888v-182zM525 1418l102 116h309v-16l-292 -260h-239l-294 262v14h312z" />
    <glyph glyph-name="longs" unicode="&#x17f;" horiz-adv-x="539" 
d="M94 0v1194c0 124 37.333 219.5 112 286.5s180 100.5 316 100.5c25.333 0 51.333 -1.83301 78 -5.5s56.334 -8.83398 89.001 -15.501l-24 -249c-19.333 3.33301 -36 5.83301 -50 7.5s-31 2.5 -51 2.5c-42.667 0 -75.334 -11 -98.001 -33s-34 -53.333 -34 -94v-1194h-338z
" />
    <glyph glyph-name="florin" unicode="&#x192;" horiz-adv-x="758" 
d="M720 848l-214.003 -0.000976562l-2 -863c0 -134.667 -36 -238.667 -108 -312s-172.333 -110 -301 -110c-30 0 -57 1.33301 -81 4s-50 7 -78 13l15 255c18.667 -4 34.334 -7 47.001 -9s29.667 -3 51 -3c38 0 67.167 13.833 87.5 41.5s30.5 67.834 30.5 120.501v863h-156
v234h156v112c0 124.667 37.333 220.334 112 287.001s180.334 100 317.001 100c25.333 0 51.333 -1.83301 78 -5.5s56.334 -8.83398 89.001 -15.501l-25 -249c-18 3.33301 -34.167 5.83301 -48.5 7.5s-31.833 2.5 -52.5 2.5c-42 0 -74.333 -11 -97 -33s-34 -53.333 -34 -94
v-112h214v-234z" />
    <glyph glyph-name="Ohorn" unicode="&#x1a0;" horiz-adv-x="1452" 
d="M1327 597c0 -179.333 -56.8301 -327.164 -170.497 -443.497s-262.167 -174.5 -445.5 -174.5c-184.667 0 -334.334 58.167 -449.001 174.5s-172 264.166 -172 443.499v262c0 178.667 57.167 326.334 171.5 443.001s263.5 175 447.5 175
c93.333 0 179.166 -16.5 257.499 -49.5s145.166 -79.167 200.499 -138.5c60.667 22.667 106.667 60.167 138 112.5s47 117.166 47 194.499h224c0 -125.333 -24.833 -230.833 -74.5 -316.5s-120.834 -148.5 -213.501 -188.5c12.667 -36.667 22.334 -74.334 29.001 -113.001
s10 -78.334 10 -119.001v-262zM990.003 861.002c0 104 -24.502 189.333 -73.502 256s-118.167 100 -207.5 100c-91.333 0 -161.166 -33.167 -209.499 -99.5s-72.5 -151.833 -72.5 -256.5v-264c0 -105.333 24.5 -191.333 73.5 -258s119.167 -100 210.5 -100
c88.667 0 157.334 33.333 206.001 100s73 152.667 73 258v264z" />
    <glyph glyph-name="ohorn" unicode="&#x1a1;" horiz-adv-x="1199" 
d="M49 551c0 162.667 46 295.169 138 397.502s220.333 153.5 385 153.5c76.667 0 146 -11.833 208 -35.5s115.667 -57.167 161 -100.5c32 27.333 56.333 63.833 73 109.5s25 99.5 25 161.5h226c0 -98.667 -19.333 -183.334 -58 -254.001s-94 -124.334 -166 -161.001
c18 -40 31.667 -82.833 41 -128.5s14 -93.167 14 -142.5v-21c0 -163.333 -46 -296 -138 -398s-220 -153 -384 -153c-166 0 -295 51 -387 153s-138 234.667 -138 398v21zM387 530.002c0 -90.667 14.167 -161.834 42.5 -213.501s76.5 -77.5 144.5 -77.5
c66 0 113.333 26 142 78s43 123 43 213v21c0 88 -14.333 158.5 -43 211.5s-76.667 79.5 -144 79.5c-66.667 0 -114.167 -26.667 -142.5 -80s-42.5 -123.666 -42.5 -210.999v-21z" />
    <glyph glyph-name="Uhorn" unicode="&#x1af;" horiz-adv-x="1475" 
d="M1309 1456l0.000976562 -184l6 -1c57.333 11.333 95.833 44.833 115.5 100.5s29.5 137.167 29.5 244.5h223c0 -166.667 -29.167 -295.667 -87.5 -387s-153.833 -145.333 -286.5 -162v-565c0 -166 -55.167 -294.667 -165.5 -386s-254.833 -137 -433.5 -137
c-180.667 0 -326.334 45.667 -437.001 137s-166 220 -166 386v954h339v-954c0 -89.333 23 -155.5 69 -198.5s111 -64.5 195 -64.5c83.333 0 147.5 21.333 192.5 64s67.5 109 67.5 199v954h339z" />
    <glyph glyph-name="uhorn" unicode="&#x1b0;" horiz-adv-x="1229" 
d="M1370 1181c0 -111.333 -25.168 -200 -75.501 -266s-128.166 -110 -233.499 -132v-783h-295l-21 128c-34.667 -48 -77.167 -84.833 -127.5 -110.5s-107.166 -38.5 -170.499 -38.5c-112 0 -199.833 36 -263.5 108s-95.5 183.667 -95.5 335v660h337v-662
c0 -60.667 11.5 -106 34.5 -136s55.833 -45 98.5 -45c36 0 67.667 5 95 15s50.666 25 69.999 45v783h338v-111l6 -1c34.667 11.333 59.667 34.5 75 69.5s23 82.167 23 141.5h205z" />
    <glyph glyph-name="uni01F0" unicode="&#x1f0;" horiz-adv-x="604" 
d="M476 1082v-1097c0 -134.667 -36 -238.667 -108 -312s-172.333 -110 -301 -110c-30 0 -57 1.33301 -81 4s-50 7 -78 13l15 255c18.667 -4 34.667 -7 48 -9s30 -3 50 -3c38 0 67.167 13.833 87.5 41.5s30.5 67.834 30.5 120.501v1097h337zM277 1418l102 116h309v-16
l-292 -260h-239l-294 262v14h312z" />
    <glyph glyph-name="Aringacute" unicode="&#x1fa;" horiz-adv-x="1300" 
d="M888 283h-459l-82 -283h-340l470 1456h363l471 -1456h-340zM504 543h309l-152 521h-6zM750 2169h283l2 -6l-285 -220h-203l-3 6zM430 1701c0 54 20.668 99.667 62.001 137s92.666 56 153.999 56c60 0 110.667 -18.667 152 -56s62 -83 62 -137
c0 -55.333 -20.5 -100.833 -61.5 -136.5s-91.833 -53.5 -152.5 -53.5c-62 0 -113.5 17.833 -154.5 53.5s-61.5 81.167 -61.5 136.5zM555.001 1701c0 -26.667 8.5 -48.334 25.5 -65.001s38.833 -25 65.5 -25c26 0 47.167 8.33301 63.5 25s24.5 38.334 24.5 65.001
c0 27.333 -8.16699 49.5 -24.5 66.5s-37.5 25.5 -63.5 25.5c-26.667 0 -48.5 -8.66699 -65.5 -26s-25.5 -39.333 -25.5 -66z" />
    <glyph glyph-name="aringacute" unicode="&#x1fb;" horiz-adv-x="1086" 
d="M718 1c-9.33301 17.333 -17.834 36.668 -25.501 58.001s-14.167 43.333 -19.5 66c-32 -44.667 -70.667 -80.167 -116 -106.5s-100.333 -39.5 -165 -39.5c-102.667 0 -186.167 29.667 -250.5 89s-96.5 138.333 -96.5 237c0 107.333 40.167 190.166 120.5 248.499
s202.5 87.5 366.5 87.5h123v77c0 46 -10.833 81.333 -32.5 106s-55.167 37 -100.5 37c-38.667 0 -67.5 -9.16699 -86.5 -27.5s-28.5 -46.833 -28.5 -85.5l-327 1l-2 6c-4.66699 98.667 36.333 181.167 123 247.5s201.334 99.5 344.001 99.5
c133.333 0 241.5 -33.333 324.5 -100s124.5 -162 124.5 -286v-408c0 -58 4.83301 -111.667 14.5 -161s24.167 -98.333 43.5 -147zM494.999 220.002c33.333 0 63.999 6.66797 91.999 20.001s50.667 30.666 68 51.999v169h-120c-53.333 0 -92.166 -13 -116.499 -39
s-36.5 -59 -36.5 -99c0 -30.667 10.5 -55.5 31.5 -74.5s48.167 -28.5 81.5 -28.5zM640.998 1847h283l2 -6l-285 -220h-203l-3 6zM320.998 1379c0 54 20.668 99.667 62.001 137s92.666 56 153.999 56c60 0 110.667 -18.667 152 -56s62 -83 62 -137
c0 -55.333 -20.5 -100.833 -61.5 -136.5s-91.833 -53.5 -152.5 -53.5c-62 0 -113.5 17.833 -154.5 53.5s-61.5 81.167 -61.5 136.5zM445.999 1379c0 -26.667 8.5 -48.334 25.5 -65.001s38.833 -25 65.5 -25c26 0 47.167 8.33301 63.5 25s24.5 38.334 24.5 65.001
c0 27.333 -8.16699 49.5 -24.5 66.5s-37.5 25.5 -63.5 25.5c-26.667 0 -48.5 -8.66699 -65.5 -26s-25.5 -39.333 -25.5 -66z" />
    <glyph glyph-name="AEacute" unicode="&#x1fc;" horiz-adv-x="1926" 
d="M1851 0h-897l-14 329h-382l-152 -329h-390l735 1456h1039v-264h-549l13 -316h455v-264h-444l15 -348h571v-264zM683 599h246l-20 473l-6 1zM962 1827h348l2 -6l-280 -260h-276z" />
    <glyph glyph-name="aeacute" unicode="&#x1fd;" horiz-adv-x="1730" 
d="M1238 -21c-83.333 0 -157.836 12.498 -223.503 37.498s-121.167 60.833 -166.5 107.5c-40 -42.667 -92.333 -77.5 -157 -104.5s-140.334 -40.5 -227.001 -40.5c-135.333 0 -239.666 30.833 -312.999 92.5s-110 145.834 -110 252.501c0 106 44.167 187.667 132.5 245
s217.166 86 386.499 86h158v46c0 44 -11.667 78.5 -35 103.5s-56.333 37.5 -99 37.5c-46.667 0 -83.167 -9.66699 -109.5 -29s-39.5 -43.666 -39.5 -72.999l-328 18l-1 6c-4.66699 98 37.5 178.833 126.5 242.5s207.5 95.5 355.5 95.5c64.667 0 124.334 -7.5 179.001 -22.5
s102.334 -37.167 143.001 -66.5c40.667 28.667 87.5 50.667 140.5 66s111.833 23 176.5 23c140.667 0 252.167 -44.167 334.5 -132.5s123.5 -207.5 123.5 -357.5v-177h-619l-2 -6c2.66699 -58.667 21.834 -105 57.501 -139s89.834 -51 162.501 -51
c58.667 0 108.167 5.33301 148.5 16s85.833 27.667 136.5 51l81 -206c-44 -34 -103.5 -62.667 -178.5 -86s-152.833 -35 -233.5 -35zM527.997 210.998c32.667 0 66.8311 8 102.498 24s64.834 35.333 87.501 58v141c-0.666992 2.66699 -1 5.16699 -1 7.5v9.5h-155
c-58 0 -103.167 -12.833 -135.5 -38.5s-48.5 -56.5 -48.5 -92.5c0 -34.667 12.333 -61.5 37 -80.5s62.334 -28.5 113.001 -28.5zM1226.99 841.998c-57.333 0 -98.499 -16.833 -123.499 -50.5s-38.833 -80.5 -41.5 -140.5l2 -5h292v26c0 53.333 -11.333 95 -34 125
s-54.334 45 -95.001 45zM891.995 1506h348l2 -6l-280 -260h-276z" />
    <glyph glyph-name="Oslashacute" unicode="&#x1fe;" horiz-adv-x="1416" 
d="M1326 597c0 -179.333 -56.833 -327.167 -170.5 -443.5s-262.167 -174.5 -445.5 -174.5c-52 0 -101.667 5 -149 15s-91.666 24.667 -132.999 44l-77 -133h-140l112 194c-74.667 55.333 -132.334 126.166 -173.001 212.499s-61 181.5 -61 285.5v262
c0 178.667 57.167 326.334 171.5 443.001s263.5 175 447.5 175c67.333 0 130.833 -8.66699 190.5 -26s114.167 -42 163.5 -74l82 141h140l-127 -219c54 -56 95.667 -121.5 125 -196.5s44 -156.167 44 -243.5v-262zM426 596.999c0 -44 4.33008 -85 12.9971 -123
s21.334 -70.333 38.001 -97l6 -1l430 744c-24.667 30.667 -54.167 54.5 -88.5 71.5s-73.166 25.5 -116.499 25.5c-91.333 0 -161.166 -33.167 -209.499 -99.5s-72.5 -151.833 -72.5 -256.5v-264zM988.997 860.999c0 20.667 -1.16797 41.166 -3.50098 61.499
s-5.5 37.833 -9.5 52.5l-6 1l-404 -698c20 -13.333 42 -23.166 66 -29.499s50 -9.5 78 -9.5c88.667 0 157.334 33.333 206.001 100s73 152.667 73 258v264zM749.996 1889h348l2 -6l-280 -260h-276z" />
    <glyph glyph-name="oslashacute" unicode="&#x1ff;" horiz-adv-x="1152" 
d="M51 551c0 162.667 46.001 295.168 138.001 397.501s220.333 153.5 385 153.5c31.333 0 61.666 -2.16699 90.999 -6.5s58 -10.5 86 -18.5l69 142h177l-103 -212c66 -48.667 116.5 -112.334 151.5 -191.001s52.5 -167 52.5 -265v-21c0 -163.333 -46 -296 -138 -398
s-220 -153 -384 -153c-31.333 0 -61.166 2 -89.499 6s-55.5 9.66699 -81.5 17l-71 -147h-177l104 214c-68.667 48 -120.834 111.833 -156.501 191.5s-53.5 169.5 -53.5 269.5v21zM389.001 530.001c0 -31.333 1.33301 -59.6689 4 -85.002s7.33398 -46.333 14.001 -63l6 -1
l220 452c-9.33301 2.66699 -18.833 4.83398 -28.5 6.50098s-19.834 2.5 -30.501 2.5c-66.667 0 -114.167 -26.667 -142.5 -80s-42.5 -123.666 -42.5 -210.999v-21zM761.001 550.998c0 27.333 -1.5 52.833 -4.5 76.5s-6.83301 43.5 -11.5 59.5l-6 1l-215 -443
c7.33301 -2 15.333 -3.5 24 -4.5s18 -1.5 28 -1.5c66 0 113.333 26 142 78s43 123 43 213v21zM568.001 1499h348l2 -6l-280 -260h-276z" />
    <glyph glyph-name="uni0218" unicode="&#x218;" horiz-adv-x="1293" 
d="M887 386c0 51.333 -17 91.0029 -51 119.003s-95 57.667 -183 89c-184 58 -320.333 120.167 -409 186.5s-133 162.166 -133 287.499c0 122 52.833 220.667 158.5 296s239.834 113 402.501 113c161.333 0 293.5 -41.5 396.5 -124.5s152.833 -189.833 149.5 -320.5l-2 -6
h-328c0 58 -19.667 105.167 -59 141.5s-93.666 54.5 -162.999 54.5c-68 0 -121.333 -15 -160 -45s-58 -67 -58 -111c0 -42.667 19.5 -76.834 58.5 -102.501s112.167 -57.834 219.5 -96.501c165.333 -49.333 289.833 -110 373.5 -182s125.5 -171 125.5 -297
c0 -128 -49.833 -228.167 -149.5 -300.5s-231.834 -108.5 -396.501 -108.5c-165.333 0 -308.333 41.5 -429 124.5s-179.334 202.5 -176.001 358.5l2 6h329c0 -84 22.667 -144 68 -180s114 -54 206 -54c70 0 122.167 14 156.5 42s51.5 64.667 51.5 110zM780 -280.997
l-133 -235h-134l61 245v161h206v-171z" />
    <glyph glyph-name="uni0219" unicode="&#x219;" horiz-adv-x="1048" 
d="M660 304c0 26.667 -15.167 50.501 -45.5 71.501s-85.5 39.833 -165.5 56.5c-126 24.667 -221 63 -285 115s-96 123 -96 213c0 95.333 40 176.166 120 242.499s188.333 99.5 325 99.5c144 0 258.667 -32.167 344 -96.5s126 -147.5 122 -249.5l-2 -6h-328
c0 42.667 -10.833 75 -32.5 97s-56.5 33 -104.5 33c-35.333 0 -65 -9.66699 -89 -29s-36 -44 -36 -74c0 -28.667 13.833 -53 41.5 -73s83.5 -38 167.5 -54c132 -26 229.833 -64.833 293.5 -116.5s95.5 -124.834 95.5 -219.501c0 -97.333 -43.167 -177.5 -129.5 -240.5
s-200.5 -94.5 -342.5 -94.5c-147.333 0 -263.833 37.333 -349.5 112s-126.5 158 -122.5 250l2 6h306c1.33301 -51.333 16.833 -88.333 46.5 -111s71.834 -34 126.501 -34c45.333 0 79.666 8.83301 102.999 26.5s35 42.834 35 75.501zM609 -280.999l-133 -235h-134l61 245
v161h206v-171z" />
    <glyph glyph-name="uni021A" unicode="&#x21a;" horiz-adv-x="1153" 
d="M1130 1196h-384v-1196h-339v1196h-381v260h1104v-260zM710 20l-10.001 -61.001c42.667 -7.33301 78.334 -24.666 107.001 -51.999s43 -67.666 43 -120.999c0 -76 -32.333 -136.333 -97 -181s-157 -67 -277 -67l-7 186c27.333 0 48.833 6.33301 64.5 19s23.5 32 23.5 58
c0 25.333 -10.167 43.166 -30.5 53.499s-54.833 16.833 -103.5 19.5l31 146h256z" />
    <glyph glyph-name="uni021B" unicode="&#x21b;" horiz-adv-x="742" 
d="M496 1351v-268.999h183v-234h-183v-496c0 -38.667 7.83301 -66.5 23.5 -83.5s36.834 -25.5 63.501 -25.5c21.333 0 38.166 0.666992 50.499 2s28.166 4 47.499 8l24 -250c-37.333 -8.66699 -71 -14.834 -101 -18.501s-65.333 -5.5 -106 -5.5
c-111.333 0 -195.666 29.667 -252.999 89s-86 153.333 -86 282v498h-152v234h152v269h337zM561 10.001l-10.001 -61.001c42.667 -7.33301 78.334 -24.666 107.001 -51.999s43 -67.666 43 -120.999c0 -76 -32.333 -136.333 -97 -181s-157 -67 -277 -67l-7 186
c27.333 0 48.833 6.33301 64.5 19s23.5 32 23.5 58c0 25.333 -10.167 43.166 -30.5 53.499s-54.833 16.833 -103.5 19.5l31 146h256z" />
    <glyph glyph-name="uni0237" unicode="&#x237;" horiz-adv-x="604" 
d="M476 1082v-1097c0 -134.667 -36 -238.667 -108 -312s-172.333 -110 -301 -110c-30 0 -57 1.33301 -81 4s-50 7 -78 13l15 255c18.667 -4 34.667 -7 48 -9s30 -3 50 -3c38 0 67.167 13.833 87.5 41.5s30.5 67.834 30.5 120.501v1097h337z" />
    <glyph glyph-name="schwa" unicode="&#x259;" horiz-adv-x="1083" 
d="M511 1104c158.667 0 285.833 -50.167 381.5 -150.5s143.5 -225.5 143.5 -375.5v-38c0 -165.333 -43.333 -300 -130 -404s-210 -155.667 -370 -155c-147.333 0 -262.5 43.833 -345.5 131.5s-124.5 207.167 -124.5 358.5v177h617l2 6c-8 54.667 -31 100 -69 136
s-88.333 54 -151 54c-64 0 -115.167 -5.16699 -153.5 -15.5s-86.5 -27.5 -144.5 -51.5l-80 206c46 34 106.5 62.667 181.5 86s155.833 35 242.5 35zM535.999 241c48 0 84.167 17.167 108.5 51.5s39.166 80.833 44.499 139.5l-3 5h-291v-26c0 -55.333 11.333 -97.5 34 -126.5
s58.334 -43.5 107.001 -43.5z" />
    <glyph glyph-name="uni02BC" unicode="&#x2bc;" horiz-adv-x="398" 
d="M374 1366l-162 -350h-166l60 351v193h268v-194z" />
    <glyph glyph-name="circumflex" unicode="&#x2c6;" horiz-adv-x="1033" 
d="M918 1274v-22h-265l-137 126l-136 -126h-260v26l300 240h193z" />
    <glyph glyph-name="caron" unicode="&#x2c7;" horiz-adv-x="985" 
d="M492 1412l102 116h309v-16l-292 -260h-239l-294 262v14h312z" />
    <glyph glyph-name="breve" unicode="&#x2d8;" horiz-adv-x="927" 
d="M825 1456l2.00195 -6c3.33301 -88.667 -28.334 -161 -95.001 -217s-156 -84 -268 -84c-112.667 0 -202.334 28 -269.001 84s-98 128.333 -94 217l2 6h243c0 -31.333 9.5 -57 28.5 -77s48.833 -30 89.5 -30c40 0 69.5 10 88.5 30s28.5 45.667 28.5 77h244z" />
    <glyph glyph-name="dotaccent" unicode="&#x2d9;" horiz-adv-x="664" 
d="M485 1215h-347v260h347v-260z" />
    <glyph glyph-name="ring" unicode="&#x2da;" horiz-adv-x="674" 
d="M128 1294c0 54 20.667 99.667 62 137s92.333 56 153 56c59.333 0 109.333 -18.667 150 -56s61 -83 61 -137c0 -54.667 -20.333 -99.834 -61 -135.501s-90.667 -53.5 -150 -53.5c-61.333 0 -112.5 17.833 -153.5 53.5s-61.5 80.834 -61.5 135.501zM249 1294
c0 -28 8.83301 -50.667 26.5 -68s40.167 -26 67.5 -26c26.667 0 48.167 8.5 64.5 25.5s24.5 39.833 24.5 68.5s-8.16699 51.834 -24.5 69.501s-37.833 26.5 -64.5 26.5c-27.333 0 -49.833 -8.83301 -67.5 -26.5s-26.5 -40.834 -26.5 -69.501z" />
    <glyph glyph-name="ogonek" unicode="&#x2db;" horiz-adv-x="645" 
d="M412 0c-29.333 -35.333 -49.999 -63.667 -61.999 -85s-18 -47.666 -18 -78.999c0 -12.667 4.66699 -25.667 14 -39s31.333 -20 66 -20c18.667 0 35 1.66699 49 5s28 7.66602 42 12.999l36 -168c-24 -12.667 -50.833 -23.167 -80.5 -31.5s-64.834 -12.5 -105.501 -12.5
c-76.667 0 -139.667 18.833 -189 56.5s-74 90.167 -74 157.5c0 50 13 97.5 39 142.5s66.333 85.167 121 120.5z" />
    <glyph glyph-name="tilde" unicode="&#x2dc;" horiz-adv-x="987" 
d="M887 1480c0 -64 -20.002 -118.833 -60.002 -164.5s-90 -68.5 -150 -68.5c-46.667 0 -101.5 14 -164.5 42s-111.833 42 -146.5 42c-22 0 -40.333 -10.833 -55 -32.5s-22 -47.5 -22 -77.5l-178 50c0 62.667 19.833 117.167 59.5 163.5s89.5 69.5 149.5 69.5
c37.333 0 89.833 -13.833 157.5 -41.5s118.834 -41.5 153.501 -41.5c20.667 0 38.834 10.667 54.501 32s23.5 47.333 23.5 78z" />
    <glyph glyph-name="hungarumlaut" unicode="&#x2dd;" horiz-adv-x="933" 
d="M786 1518h302l2 -6l-278 -260h-264l-2 5zM368 1518h305l2 -5l-240 -261h-273z" />
    <glyph glyph-name="uni02F3" unicode="&#x2f3;" horiz-adv-x="659" 
d="M147 -225c0 49.333 18.667 90.5 56 123.5s84 49.5 140 49.5c54.667 0 100.5 -16.5 137.5 -49.5s55.5 -74.167 55.5 -123.5c0 -48.667 -18.5 -89.167 -55.5 -121.5s-82.833 -48.5 -137.5 -48.5c-56 0 -102.667 16.167 -140 48.5s-56 72.833 -56 121.5zM272 -225
c0 -20 6.5 -36.667 19.5 -50s30.167 -20 51.5 -20c20 0 36.167 6.5 48.5 19.5s18.5 29.833 18.5 50.5c0 22 -6.16699 39.5 -18.5 52.5s-28.5 19.5 -48.5 19.5c-21.333 0 -38.5 -6.5 -51.5 -19.5s-19.5 -30.5 -19.5 -52.5z" />
    <glyph glyph-name="gravecomb" unicode="&#x300;" horiz-adv-x="0" 
d="M-384 1190h-199l-195 293h253z" />
    <glyph glyph-name="acutecomb" unicode="&#x301;" horiz-adv-x="0" 
d="M-697 1492h254l-194 -293h-199z" />
    <glyph glyph-name="tildecomb" unicode="&#x303;" horiz-adv-x="0" 
d="M-169 1480c0 -64 -20.002 -118.833 -60.002 -164.5s-90 -68.5 -150 -68.5c-46.667 0 -101.5 14 -164.5 42s-111.833 42 -146.5 42c-22 0 -40.333 -10.833 -55 -32.5s-22 -47.5 -22 -77.5l-178 50c0 62.667 19.833 117.167 59.5 163.5s89.5 69.5 149.5 69.5
c37.333 0 89.833 -13.833 157.5 -41.5s118.834 -41.5 153.501 -41.5c20.667 0 38.834 10.667 54.501 32s23.5 47.333 23.5 78z" />
    <glyph glyph-name="hook" unicode="&#x309;" horiz-adv-x="0" 
d="M-750 1276l-21.999 126.001c48 1.33301 82.667 7 104 17s30.333 24.333 27 43v6c3.33301 23.333 -6.33398 39.666 -29.001 48.999s-56 14 -100 14l7 145c136 0 240 -17.333 312 -52s108 -83 108 -145c0 -41.333 -14.5 -73.833 -43.5 -97.5s-64.5 -38.167 -106.5 -43.5
v-62h-257z" />
    <glyph glyph-name="uni030F" unicode="&#x30f;" horiz-adv-x="0" 
d="M-519 1257l-2 -5h-264l-278 260l2 6h302zM-134 1252h-274l-240 261l2 5h305z" />
    <glyph glyph-name="dotbelow" unicode="&#x323;" horiz-adv-x="0" 
d="M-407 -362h-381v260h381v-260z" />
    <glyph glyph-name="tonos" unicode="&#x384;" horiz-adv-x="779" 
d="M343 1618h313l-227 -346h-169z" />
    <glyph glyph-name="dieresistonos" unicode="&#x385;" horiz-adv-x="1163" 
d="M997 1252h-280v204h280v-204zM429 1252h-280v204h280v-204zM531 1770h313l-201 -286h-149z" />
    <glyph glyph-name="Alphatonos" unicode="&#x386;" horiz-adv-x="1300" 
d="M888 283h-459l-82 -283h-340l470 1456h363l471 -1456h-340zM504 543h309l-152 521h-6zM117 1618h313l-227 -346h-169z" />
    <glyph glyph-name="anoteleia" unicode="&#x387;" horiz-adv-x="658" 
d="M496 539h-338v284h338v-284z" />
    <glyph glyph-name="Epsilontonos" unicode="&#x388;" horiz-adv-x="1265" 
d="M1124 623h-571v-363h673v-260h-1012v1456h1014v-260h-675v-313h571v-260zM-108 1620h313l-227 -346h-169z" />
    <glyph glyph-name="Etatonos" unicode="&#x389;" horiz-adv-x="1544" 
d="M1429 0h-337v586h-539v-586h-339v1456h339v-610h539v610h337v-1456zM-71 1616h313l-227 -346h-169z" />
    <glyph glyph-name="Iotatonos" unicode="&#x38a;" horiz-adv-x="711" 
d="M574 0h-337v1456h337v-1456zM-60 1620h313l-227 -346h-169z" />
    <glyph glyph-name="Omicrontonos" unicode="&#x38c;" horiz-adv-x="1420" 
d="M1338 597c0 -179.333 -56.833 -327.166 -170.5 -443.499s-262.167 -174.5 -445.5 -174.5c-184.667 0 -334.334 58.167 -449.001 174.5s-172 264.166 -172 443.499v262c0 178.667 57.167 326.334 171.5 443.001s263.5 175 447.5 175
c182.667 0 331.334 -58.333 446.001 -175s172 -264.334 172 -443.001v-262zM1001 861c0 104 -24.502 189.333 -73.502 256s-118.167 100 -207.5 100c-91.333 0 -161.166 -33.167 -209.499 -99.5s-72.5 -151.833 -72.5 -256.5v-264c0 -105.333 24.5 -191.333 73.5 -258
s119.167 -100 210.5 -100c88.667 0 157.334 33.333 206.001 100s73 152.667 73 258v264zM26.998 1618h313l-227 -346h-169z" />
    <glyph glyph-name="Upsilontonos" unicode="&#x38e;" horiz-adv-x="1410" 
d="M751 820h6l290 636h367l-495 -944v-512h-337v529l-485 927h365zM-144 1618h313l-227 -346h-169z" />
    <glyph glyph-name="Omegatonos" unicode="&#x38f;" horiz-adv-x="1400" 
d="M755 268c45.333 26.667 81.332 81.668 107.999 165.001s40 201.666 40 354.999v81c0 112 -17.667 197.333 -53 256s-84.666 88 -147.999 88c-62.667 0 -111.334 -29.5 -146.001 -88.5s-52 -144.167 -52 -255.5v-81c0 -154.667 13.5 -273.5 40.5 -356.5
s64.5 -137.5 112.5 -163.5v-268h-507v264h250c-83.333 58 -150.833 132.833 -202.5 224.5s-77.5 191.5 -77.5 299.5v79c0 178.667 53.833 325 161.5 439s247.834 171 420.501 171c172 0 312.333 -57.167 421 -171.5s163 -260.5 163 -438.5v-79
c0 -108 -26 -207.833 -78 -299.5s-119 -166.5 -201 -224.5h257v-264h-509v268zM14.999 1618h313l-227 -346h-169z" />
    <glyph glyph-name="iotadieresistonos" unicode="&#x390;" horiz-adv-x="685" 
d="M445 1081l-0.00195312 -730.999c0 -40.667 6.66699 -69.167 20 -85.5s36 -24.5 68 -24.5c20.667 0 35.834 0.666992 45.501 2s28.167 5 55.5 11l23 -250c-32 -8.66699 -61.667 -14.834 -89 -18.501s-59.666 -5.5 -96.999 -5.5c-116.667 0 -206.667 31.167 -270 93.5
s-95 154.833 -95 277.5v731h339zM702.998 1193h-280v204h280v-204zM134.998 1193h-280v204h280v-204zM236.998 1711h313l-201 -286h-149z" />
    <glyph glyph-name="Alpha" unicode="&#x391;" horiz-adv-x="1300" 
d="M888 283h-459l-82 -283h-340l470 1456h363l471 -1456h-340zM504 543h309l-152 521h-6z" />
    <glyph glyph-name="Beta" unicode="&#x392;" horiz-adv-x="1315" 
d="M114 0v1456h500c180.667 0 321.667 -33.5 423 -100.5s152 -166.833 152 -299.5c0 -69.333 -16.333 -131 -49 -185s-83 -94.667 -151 -122c85.333 -19.333 148.333 -58.166 189 -116.499s61 -125.5 61 -201.5c0 -142 -47.667 -249.333 -143 -322s-232 -109 -410 -109h-572
zM453 624.999v-364.999h233c72 0 126 14.167 162 42.5s54 71.833 54 130.5c0 63.333 -15.5 111.166 -46.5 143.499s-81.167 48.5 -150.5 48.5h-252zM453 849l168 0.000976562c76.667 1.33301 134 16.166 172 44.499s57 69.833 57 124.5c0 62 -19.333 107.167 -58 135.5
s-98 42.5 -178 42.5h-161v-347z" />
    <glyph glyph-name="Gamma" unicode="&#x393;" horiz-adv-x="1142" 
d="M1090 1196h-637v-1196h-339v1456h976v-260z" />
    <glyph glyph-name="Delta" unicode="&#x394;" horiz-adv-x="1517" 
d="M948 1456l572 -1456h-1502l567 1456h363zM469 260h598l-298 801h-6z" />
    <glyph glyph-name="Delta" unicode="&#x2206;" horiz-adv-x="1517" 
d="M948 1456l572 -1456h-1502l567 1456h363zM469 260h598l-298 801h-6z" />
    <glyph glyph-name="Epsilon" unicode="&#x395;" horiz-adv-x="1165" 
d="M1024 623h-571v-363h673v-260h-1012v1456h1014v-260h-675v-313h571v-260z" />
    <glyph glyph-name="Zeta" unicode="&#x396;" horiz-adv-x="1196" 
d="M483 260h663v-260h-1079v152l651 1044h-654v260h1073v-146z" />
    <glyph glyph-name="Eta" unicode="&#x397;" horiz-adv-x="1444" 
d="M1329 0h-337v586h-539v-586h-339v1456h339v-610h539v610h337v-1456z" />
    <glyph glyph-name="Theta" unicode="&#x398;" horiz-adv-x="1416" 
d="M870 589h-315v259h315v-259zM1313 597c0 -179.333 -56.833 -327.166 -170.5 -443.499s-262.167 -174.5 -445.5 -174.5c-184.667 0 -334.334 58.167 -449.001 174.5s-172 264.166 -172 443.499v262c0 178.667 57.167 326.334 171.5 443.001s263.5 175 447.5 175
c182.667 0 331.334 -58.333 446.001 -175s172 -264.334 172 -443.001v-262zM976 861c0 104 -24.502 189.333 -73.502 256s-118.167 100 -207.5 100c-91.333 0 -161.166 -33.167 -209.499 -99.5s-72.5 -151.833 -72.5 -256.5v-264c0 -105.333 24.5 -191.333 73.5 -258
s119.167 -100 210.5 -100c88.667 0 157.334 33.333 206.001 100s73 152.667 73 258v264z" />
    <glyph glyph-name="Iota" unicode="&#x399;" horiz-adv-x="611" 
d="M474 0h-337v1456h337v-1456z" />
    <glyph glyph-name="Kappa" unicode="&#x39a;" horiz-adv-x="1325" 
d="M609 584h-156v-584h-339v1456h339v-570h115l320 570h420l-451 -659l490 -797h-412z" />
    <glyph glyph-name="Lambda" unicode="&#x39b;" horiz-adv-x="1319" 
d="M361 0h-356l473 1456h363l473 -1456h-355l-276 1061l-20 86h-6l-19 -82z" />
    <glyph glyph-name="Mu" unicode="&#x39c;" horiz-adv-x="1780" 
d="M558 1456l326 -1019h6l330 1019h446v-1456h-339v361l32 665l-6 1l-351 -1027h-228l-347 1018l-6 -1l32 -656v-361h-339v1456h444z" />
    <glyph glyph-name="Nu" unicode="&#x39d;" horiz-adv-x="1444" 
d="M1329 0h-337l-533 928l-6 -2v-926h-339v1456h339l533 -928l6 2v926h337v-1456z" />
    <glyph glyph-name="Xi" unicode="&#x39e;" horiz-adv-x="1157" 
d="M85 260h1003v-260h-1003v260zM212 856h752v-248h-752v248zM118 1456h915v-260h-915v260z" />
    <glyph glyph-name="Omicron" unicode="&#x39f;" horiz-adv-x="1400" 
d="M1318 597c0 -179.333 -56.833 -327.166 -170.5 -443.499s-262.167 -174.5 -445.5 -174.5c-184.667 0 -334.334 58.167 -449.001 174.5s-172 264.166 -172 443.499v262c0 178.667 57.167 326.334 171.5 443.001s263.5 175 447.5 175
c182.667 0 331.334 -58.333 446.001 -175s172 -264.334 172 -443.001v-262zM981 861c0 104 -24.502 189.333 -73.502 256s-118.167 100 -207.5 100c-91.333 0 -161.166 -33.167 -209.499 -99.5s-72.5 -151.833 -72.5 -256.5v-264c0 -105.333 24.5 -191.333 73.5 -258
s119.167 -100 210.5 -100c88.667 0 157.334 33.333 206.001 100s73 152.667 73 258v264z" />
    <glyph glyph-name="Pi" unicode="&#x3a0;" horiz-adv-x="1443" 
d="M1329 0h-338v1196h-538v-1196h-339v1456h1215v-1456z" />
    <glyph glyph-name="Rho" unicode="&#x3a1;" horiz-adv-x="1344" 
d="M453 499v-499h-339v1456h591c172.667 0 309.667 -44.167 411 -132.5s152 -203.833 152 -346.5c0 -143.333 -50.667 -258.833 -152 -346.5s-238.333 -131.5 -411 -131.5h-252zM453 759l252 0.000976562c73.333 0 129.166 20.167 167.499 60.5s57.5 92.166 57.5 155.499
c0 64.667 -19.167 117.667 -57.5 159s-94.166 62 -167.499 62h-252v-437z" />
    <glyph glyph-name="Sigma" unicode="&#x3a3;" horiz-adv-x="1157" 
d="M855 731l-325 -471h579v-260h-1036v152l425 586l-425 568v150h1021v-260h-559l320 -451v-14z" />
    <glyph glyph-name="Tau" unicode="&#x3a4;" horiz-adv-x="1153" 
d="M1130 1196h-384v-1196h-339v1196h-381v260h1104v-260z" />
    <glyph glyph-name="Upsilon" unicode="&#x3a5;" horiz-adv-x="1310" 
d="M651 820h6l290 636h367l-495 -944v-512h-337v529l-485 927h365z" />
    <glyph glyph-name="Phi" unicode="&#x3a6;" horiz-adv-x="1619" 
d="M988 1291c172.667 -8.66699 311.167 -64.3311 415.5 -166.998s156.5 -237.667 156.5 -405c0 -162.667 -52.167 -293.834 -156.5 -393.501s-242.833 -153.167 -415.5 -160.5v-165h-338v165c-174 6 -313.667 58.667 -419 158s-158 230.666 -158 393.999
c0 168 52.667 303.667 158 407s245 159 419 167v165h338v-165zM404 717.003c0 -83.333 21.667 -147.499 65 -192.499s101.666 -68.833 174.999 -71.5l6 2v544l-6 2c-73.333 -3.33301 -131.666 -29.333 -174.999 -78s-65 -117.334 -65 -206.001zM1230 719.004
c0 88 -21.5 156.167 -64.5 204.5s-100.167 74.166 -171.5 77.499l-6 -2v-544l6 -2c71.333 3.33301 128.5 27.833 171.5 73.5s64.5 109.834 64.5 192.501z" />
    <glyph glyph-name="Chi" unicode="&#x3a7;" horiz-adv-x="1307" 
d="M648 965l240 491h390l-417 -722l449 -734h-410l-248 501l-248 -501h-390l428 734l-417 722h387z" />
    <glyph glyph-name="Psi" unicode="&#x3a8;" horiz-adv-x="1517" 
d="M938 632l6 -1.99902c67.333 8.66699 116.833 40.834 148.5 96.501s47.5 136.5 47.5 242.5v487h339v-487c0 -178.667 -48.167 -321 -144.5 -427s-228.5 -167.333 -396.5 -184v-358h-337v356c-174.667 13.333 -311.667 73.166 -411 179.499s-149 250.833 -149 433.5v487
h337v-487c0 -101.333 18.333 -180.333 55 -237s90.667 -90.334 162 -101.001l6 2v823h337v-824z" />
    <glyph glyph-name="Omega" unicode="&#x3a9;" horiz-adv-x="1380" 
d="M735 268c45.333 26.667 81.332 81.668 107.999 165.001s40 201.666 40 354.999v81c0 112 -17.667 197.333 -53 256s-84.666 88 -147.999 88c-62.667 0 -111.334 -29.5 -146.001 -88.5s-52 -144.167 -52 -255.5v-81c0 -154.667 13.5 -273.5 40.5 -356.5
s64.5 -137.5 112.5 -163.5v-268h-507v264h250c-83.333 58 -150.833 132.833 -202.5 224.5s-77.5 191.5 -77.5 299.5v79c0 178.667 53.833 325 161.5 439s247.834 171 420.501 171c172 0 312.333 -57.167 421 -171.5s163 -260.5 163 -438.5v-79
c0 -108 -26 -207.833 -78 -299.5s-119 -166.5 -201 -224.5h257v-264h-509v268z" />
    <glyph glyph-name="Omega" unicode="&#x2126;" horiz-adv-x="1380" 
d="M735 268c45.333 26.667 81.332 81.668 107.999 165.001s40 201.666 40 354.999v81c0 112 -17.667 197.333 -53 256s-84.666 88 -147.999 88c-62.667 0 -111.334 -29.5 -146.001 -88.5s-52 -144.167 -52 -255.5v-81c0 -154.667 13.5 -273.5 40.5 -356.5
s64.5 -137.5 112.5 -163.5v-268h-507v264h250c-83.333 58 -150.833 132.833 -202.5 224.5s-77.5 191.5 -77.5 299.5v79c0 178.667 53.833 325 161.5 439s247.834 171 420.501 171c172 0 312.333 -57.167 421 -171.5s163 -260.5 163 -438.5v-79
c0 -108 -26 -207.833 -78 -299.5s-119 -166.5 -201 -224.5h257v-264h-509v268z" />
    <glyph glyph-name="Iotadieresis" unicode="&#x3aa;" horiz-adv-x="611" 
d="M474 0h-337v1456h337v-1456zM710 1601h-290v204h290v-204zM195 1601h-290v204h290v-204z" />
    <glyph glyph-name="Upsilondieresis" unicode="&#x3ab;" horiz-adv-x="1310" 
d="M651 820h6l290 636h367l-495 -944v-512h-337v529l-485 927h365zM1067 1601h-290v204h290v-204zM552 1601h-290v204h290v-204z" />
    <glyph glyph-name="alphatonos" unicode="&#x3ac;" horiz-adv-x="1152" 
d="M1041 1081l-0.00488281 -711c0 -47.333 5.33301 -80.666 16 -99.999s28.334 -29 53.001 -29c4 0 7.16699 0.166992 9.5 0.5s4.5 1.16602 6.5 2.49902l26 -244c-21.333 -8 -41.166 -13.5 -59.499 -16.5s-40.166 -4.5 -65.499 -4.5
c-67.333 0 -125.166 14.167 -173.499 42.5s-84.833 70.833 -109.5 127.5c-30.667 -55.333 -67.5 -97.5 -110.5 -126.5s-93.833 -43.5 -152.5 -43.5c-133.333 0 -236.833 49.333 -310.5 148s-110.5 229 -110.5 391v21c0 168.667 36.833 304.667 110.5 408
s177.834 155 312.501 155c51.333 0 96.833 -12.5 136.5 -37.5s74.167 -60.5 103.5 -106.5l23 123h295zM398.995 518c0 -88.667 12.666 -157.334 37.999 -206.001s68.333 -73 129 -73c32 0 59.5 5.5 82.5 16.5s41.833 27.833 56.5 50.5c-1.33301 8.66699 -2 17.667 -2 27v37
v399c-15.333 23.333 -34.166 41.333 -56.499 54s-48.5 19 -78.5 19c-59.333 0 -102.333 -27.667 -129 -83s-40 -128.666 -40 -219.999v-21zM558.994 1539h313l-227 -346h-169z" />
    <glyph glyph-name="epsilontonos" unicode="&#x3ad;" horiz-adv-x="1159" 
d="M607 450c-56 0 -99.665 -8.99902 -130.998 -26.999s-47 -47 -47 -87c0 -31.333 14.667 -58.5 44 -81.5s71 -34.5 125 -34.5c56.667 0 99.5 9.33301 128.5 28s43.5 42.667 43.5 72h327l2 -6c3.33301 -108 -42.667 -190.667 -138 -248s-208.666 -86 -339.999 -86
c-152.667 0 -278.834 29.333 -378.501 88s-149.5 138 -149.5 238c0 60 17.667 111.333 53 154s86.666 75 153.999 97c-58.667 24 -104.667 56.167 -138 96.5s-50 84.5 -50 132.5c0 99.333 46.667 176.666 140 231.999s216.333 83 369 83
c132.667 0 243.5 -29.833 332.5 -89.5s131.833 -138.834 128.5 -237.501l-2 -6h-327c0 30.667 -14.167 53.834 -42.5 69.501s-65.5 23.5 -111.5 23.5c-50.667 0 -88.334 -10.5 -113.001 -31.5s-37 -45.833 -37 -74.5c0 -30.667 14.167 -54.667 42.5 -72
s66.833 -26 115.5 -26h175v-207h-175zM544.002 1538h313l-227 -346h-169z" />
    <glyph glyph-name="etatonos" unicode="&#x3ae;" 
d="M407 1082l13.001 -154.001c36 54.667 80.167 97.334 132.5 128.001s110.166 46 173.499 46c106 0 188.833 -36 248.5 -108s89.5 -186.333 89.5 -343v-1067h-338v1068c0 68.667 -11 117.5 -33 146.5s-54 43.5 -96 43.5c-36.667 0 -69.167 -6.5 -97.5 -19.5
s-52.5 -31.167 -72.5 -54.5v-768h-337v1082h317zM518.001 1539h313l-227 -346h-169z" />
    <glyph glyph-name="iotatonos" unicode="&#x3af;" horiz-adv-x="685" 
d="M445 1081l-0.00195312 -730.999c0 -40.667 6.66699 -69.167 20 -85.5s36 -24.5 68 -24.5c20.667 0 35.834 0.666992 45.501 2s28.167 5 55.5 11l23 -250c-32 -8.66699 -61.667 -14.834 -89 -18.501s-59.666 -5.5 -96.999 -5.5c-116.667 0 -206.667 31.167 -270 93.5
s-95 154.833 -95 277.5v731h339zM236.998 1517h313l-227 -346h-169z" />
    <glyph glyph-name="upsilondieresistonos" unicode="&#x3b0;" 
d="M436 1082l-0.000976562 -611.998c0 -83.333 13.667 -142.666 41 -177.999s64 -53 110 -53c58.667 0 101 31.167 127 93.5s39 140.166 39 233.499c-2 85.333 -10.667 171.166 -26 257.499s-36.666 172.5 -63.999 258.5h313c33.333 -68.667 60.5 -146.334 81.5 -233.001
s31.5 -181 31.5 -283c0 -182.667 -38 -326.167 -114 -430.5s-202 -156.5 -378 -156.5c-156 0 -278 40.667 -366 122s-132 205 -132 371v610h337zM1003 1194h-280v204h280v-204zM434.999 1194h-280v204h280v-204zM536.999 1712h313l-201 -286h-149z" />
    <glyph glyph-name="alpha" unicode="&#x3b1;" horiz-adv-x="1152" 
d="M1041 1081l-0.00488281 -711c0 -47.333 5.33301 -80.666 16 -99.999s28.334 -29 53.001 -29c4 0 7.16699 0.166992 9.5 0.5s4.5 1.16602 6.5 2.49902l26 -244c-21.333 -8 -41.166 -13.5 -59.499 -16.5s-40.166 -4.5 -65.499 -4.5
c-67.333 0 -125.166 14.167 -173.499 42.5s-84.833 70.833 -109.5 127.5c-30.667 -55.333 -67.5 -97.5 -110.5 -126.5s-93.833 -43.5 -152.5 -43.5c-133.333 0 -236.833 49.333 -310.5 148s-110.5 229 -110.5 391v21c0 168.667 36.833 304.667 110.5 408
s177.834 155 312.501 155c51.333 0 96.833 -12.5 136.5 -37.5s74.167 -60.5 103.5 -106.5l23 123h295zM398.995 518c0 -88.667 12.666 -157.334 37.999 -206.001s68.333 -73 129 -73c32 0 59.5 5.5 82.5 16.5s41.833 27.833 56.5 50.5c-1.33301 8.66699 -2 17.667 -2 27v37
v399c-15.333 23.333 -34.166 41.333 -56.499 54s-48.5 19 -78.5 19c-59.333 0 -102.333 -27.667 -129 -83s-40 -128.666 -40 -219.999v-21z" />
    <glyph glyph-name="beta" unicode="&#x3b2;" horiz-adv-x="1243" 
d="M637 1477c150 0 268.834 -34.167 356.501 -102.5s131.5 -165.833 131.5 -292.5c0 -68.667 -17 -131 -51 -187s-81.333 -100.333 -142 -133c82 -28.667 145.167 -73.167 189.5 -133.5s66.5 -133.833 66.5 -220.5c0 -136.667 -38.667 -242.334 -116 -317.001
s-186 -112 -326 -112c-47.333 0 -94.833 5.83301 -142.5 17.5s-91.834 29.5 -132.501 53.5v-465h-337v1433c0 138.667 48 249.834 144 333.501s215.667 125.5 359 125.5zM633.001 857c53.333 0 92.5 16.167 117.5 48.5s37.5 80.833 37.5 145.5c0 46.667 -13 86 -39 118
s-63.333 48 -112 48c-50 0 -90.167 -17.833 -120.5 -53.5s-45.5 -84.167 -45.5 -145.5v-738c23.333 -13.333 50.833 -23.5 82.5 -30.5s66.5 -10.5 104.5 -10.5c58.667 0 105.5 16.667 140.5 50s52.5 75.333 52.5 126c0 72 -17 125.167 -51 159.5s-84.333 51.5 -151 51.5h-72
v231h56z" />
    <glyph glyph-name="gamma" unicode="&#x3b3;" horiz-adv-x="1053" 
d="M692 1082h355l-356 -1082v-417h-337v417l-354 1082h356l145 -636l20 -115l6 -1l22 116z" />
    <glyph glyph-name="delta" unicode="&#x3b4;" 
d="M998 1456l0.000976562 -260h-368c115.333 -64.667 222.166 -156.667 320.499 -276s147.5 -242.333 147.5 -369v-21c0 -163.333 -46 -296 -138 -398s-220 -153 -384 -153c-166 0 -295 47.167 -387 141.5s-138 217.5 -138 369.5v21c0 129.333 36.167 238.833 108.5 328.5
s161.5 144.167 267.5 163.5l8 1l2 6c-36 40 -77 80.833 -123 122.5s-93 80.5 -141 116.5v207h825zM389.001 530c0 -90.667 14.166 -161.833 42.499 -213.5s76.5 -77.5 144.5 -77.5c66 0 113.333 26 142 78s43 123 43 213v21c0 65.333 -13.667 123.166 -41 173.499
s-60.666 87.5 -99.999 111.5c-7.33301 2 -14.833 3.5 -22.5 4.5s-15.5 1.5 -23.5 1.5c-66.667 0 -114.167 -26.667 -142.5 -80s-42.5 -123.666 -42.5 -210.999v-21z" />
    <glyph glyph-name="epsilon" unicode="&#x3b5;" horiz-adv-x="1159" 
d="M607 450c-56 0 -99.665 -8.99902 -130.998 -26.999s-47 -47 -47 -87c0 -31.333 14.667 -58.5 44 -81.5s71 -34.5 125 -34.5c56.667 0 99.5 9.33301 128.5 28s43.5 42.667 43.5 72h327l2 -6c3.33301 -108 -42.667 -190.667 -138 -248s-208.666 -86 -339.999 -86
c-152.667 0 -278.834 29.333 -378.501 88s-149.5 138 -149.5 238c0 60 17.667 111.333 53 154s86.666 75 153.999 97c-58.667 24 -104.667 56.167 -138 96.5s-50 84.5 -50 132.5c0 99.333 46.667 176.666 140 231.999s216.333 83 369 83
c132.667 0 243.5 -29.833 332.5 -89.5s131.833 -138.834 128.5 -237.501l-2 -6h-327c0 30.667 -14.167 53.834 -42.5 69.501s-65.5 23.5 -111.5 23.5c-50.667 0 -88.334 -10.5 -113.001 -31.5s-37 -45.833 -37 -74.5c0 -30.667 14.167 -54.667 42.5 -72
s66.833 -26 115.5 -26h175v-207h-175z" />
    <glyph glyph-name="zeta" unicode="&#x3b6;" horiz-adv-x="1014" 
d="M966 1456l-0.00195312 -177.994l-369 -435c-66.667 -78.667 -113.667 -146.334 -141 -203.001s-41 -123.334 -41 -200.001c0 -62.667 15.833 -109.334 47.5 -140.001s81.834 -46 150.501 -46h65c93.333 0 167.333 -25.833 222 -77.5s82 -122.834 82 -213.501
c-1.33301 -88.667 -33.166 -169 -95.499 -241s-150.166 -121.667 -263.499 -149l-104 226c43.333 18 76.833 37.167 100.5 57.5s35.5 45.166 35.5 74.499c0 22 -8.83301 39 -26.5 51s-47.834 18 -90.501 18h-48c-132.667 0 -234.167 37.167 -304.5 111.5
s-105.5 164.166 -105.5 269.499c0 114.667 20.667 213.667 62 297s109 183.333 203 300l178 215l-3 5h-466v258h912z" />
    <glyph glyph-name="eta" unicode="&#x3b7;" 
d="M407 1082l13.001 -154.001c36 54.667 80.167 97.334 132.5 128.001s110.166 46 173.499 46c106 0 188.833 -36 248.5 -108s89.5 -186.333 89.5 -343v-1067h-338v1068c0 68.667 -11 117.5 -33 146.5s-54 43.5 -96 43.5c-36.667 0 -69.167 -6.5 -97.5 -19.5
s-52.5 -31.167 -72.5 -54.5v-768h-337v1082h317z" />
    <glyph glyph-name="theta" unicode="&#x3b8;" horiz-adv-x="1231" 
d="M1123 575c0 -196.667 -45.667 -345.167 -137 -445.5s-214.333 -150.5 -369 -150.5c-156 0 -279.667 50.167 -371 150.5s-137 248.833 -137 445.5v306c0 196.667 45.333 345.167 136 445.5s214 150.5 370 150.5c155.333 0 278.833 -50.333 370.5 -151
s137.5 -249 137.5 -445v-306zM786 611h-340.001v-57c0 -113.333 14.333 -194.166 43 -242.499s71.334 -72.5 128.001 -72.5c55.333 0 97.333 24.167 126 72.5s43 129.166 43 242.499v57zM445.999 858h339.999v46c0 111.333 -14.667 191.333 -44 240s-71.666 73 -126.999 73
c-56 0 -98.167 -24.333 -126.5 -73s-42.5 -128.667 -42.5 -240v-46z" />
    <glyph glyph-name="iota" unicode="&#x3b9;" horiz-adv-x="685" 
d="M445 1081l-0.00195312 -730.999c0 -40.667 6.66699 -69.167 20 -85.5s36 -24.5 68 -24.5c20.667 0 35.834 0.666992 45.501 2s28.167 5 55.5 11l23 -250c-32 -8.66699 -61.667 -14.834 -89 -18.501s-59.666 -5.5 -96.999 -5.5c-116.667 0 -206.667 31.167 -270 93.5
s-95 154.833 -95 277.5v731h339z" />
    <glyph glyph-name="kappa" unicode="&#x3ba;" horiz-adv-x="1242" 
d="M575 378h-120v-378h-337v1082h337v-389h90l225 389h432l-346 -500l354 -582h-434z" />
    <glyph glyph-name="lambda" unicode="&#x3bb;" horiz-adv-x="1071" 
d="M351 0l-360.001 -0.00195312l366 1072l-52 95c-13.333 27.333 -32.666 49.166 -57.999 65.499s-54.666 24.5 -87.999 24.5c-9.33301 0 -20.833 -0.666992 -34.5 -2s-23.834 -2.66602 -30.501 -3.99902l-9 241c34.667 9.33301 62.834 16 84.501 20s47.167 6 76.5 6
c114.667 0 199 -26.167 253 -78.5s96.333 -117.833 127 -196.5l365 -875c10.667 -29.333 25 -54 43 -74s40.333 -33.667 67 -41c6 -2 14.167 -3.33301 24.5 -4s20.5 -1 30.5 -1l-28 -252c-28.667 -4 -56.667 -6.5 -84 -7.5s-55.333 -0.166992 -84 2.5
c-89.333 8.66699 -158.833 48.334 -208.5 119.001s-87.834 148.334 -114.501 233.001l-111 316l-6 -1l-9 -54z" />
    <glyph glyph-name="uni03BC" unicode="&#x3bc;" horiz-adv-x="1313" 
d="M470 1082l0.000976562 -619.999c0 -84.667 13.167 -142.334 39.5 -173.001s67.5 -46 123.5 -46c43.333 0 80 7.66699 110 23s53.667 38 71 68v748h337v-1082h-317l-5 53c-28.667 -24.667 -60.667 -43.167 -96 -55.5s-73.333 -18.5 -114 -18.5
c-28.667 0 -55.334 2.83301 -80.001 8.5s-47.667 14.167 -69 25.5v-429h-338v1498h338z" />
    <glyph glyph-name="nu" unicode="&#x3bd;" horiz-adv-x="1053" 
d="M501 446l20 -115l6 -1l22 116l143 636h355l-352 -1082h-343l-352 1082h356z" />
    <glyph glyph-name="xi" unicode="&#x3be;" horiz-adv-x="1125" 
d="M1010 1456l-0.00390625 -269.999h-279c-66 -1.33301 -114.833 -12.5 -146.5 -33.5s-47.5 -50.833 -47.5 -89.5c0 -43.333 14.833 -78 44.5 -104s75.834 -39 138.501 -39h155v-271h-143c-94 0 -165.667 -19.333 -215 -58s-74 -94.334 -74 -167.001
c0 -52 18.167 -94 54.5 -126s86.5 -48 150.5 -48h152c99.333 0 177.333 -24.333 234 -73s85 -120 85 -214c-1.33301 -104.667 -31.166 -191 -89.499 -259s-148.166 -118.667 -269.499 -152l-82 193c37.333 16 69.333 35.167 96 57.5s40 51.5 40 87.5
c0 28 -9.66699 49.833 -29 65.5s-49.666 23.5 -90.999 23.5h-70c-160 0 -286.5 39.333 -379.5 118s-139.5 189 -139.5 331c0 84.667 24.333 156.667 73 216s119.667 104.666 213 135.999c-62 20.667 -109.333 49.167 -142 85.5s-49 80.5 -49 132.5c0 44 13 81.333 39 112
s63.333 54.334 112 71.001l-3 5h-208v270h870z" />
    <glyph glyph-name="omicron" unicode="&#x3bf;" 
d="M51 551c0 162.667 46 295.167 138 397.5s220.333 153.5 385 153.5c165.333 0 294 -51.167 386 -153.5s138 -234.833 138 -397.5v-21c0 -163.333 -46 -296 -138 -398s-220 -153 -384 -153c-166 0 -295 51 -387 153s-138 234.667 -138 398v21zM389 530
c0 -90.667 14.167 -161.834 42.5 -213.501s76.5 -77.5 144.5 -77.5c66 0 113.333 26 142 78s43 123 43 213v21c0 88 -14.333 158.5 -43 211.5s-76.667 79.5 -144 79.5c-66.667 0 -114.167 -26.667 -142.5 -80s-42.5 -123.666 -42.5 -210.999v-21z" />
    <glyph glyph-name="pi" unicode="&#x3c0;" horiz-adv-x="1383" 
d="M1276 840l-170.002 0.000976562v-489c0 -40.667 6.66699 -69.167 20 -85.5s36 -24.5 68 -24.5c20.667 0 35.834 0.666992 45.501 2s28.167 5 55.5 11l23 -250c-32 -8.66699 -61.667 -14.834 -89 -18.501s-59.666 -5.5 -96.999 -5.5c-116.667 0 -206.667 31.167 -270 93.5
s-95 154.833 -95 277.5v489h-188v-840h-337v840h-164v242h1198v-242z" />
    <glyph glyph-name="rho" unicode="&#x3c1;" 
d="M1099 518c0 -162 -36.833 -292.332 -110.5 -390.999s-177.167 -148 -310.5 -148c-52.667 0 -99 10.167 -139 30.5s-75 50.166 -105 89.499v-515h-338v995c0 152 45.5 277.167 136.5 375.5s218.167 147.5 381.5 147.5c153.333 0 272.5 -51.667 357.5 -155
s127.5 -239.333 127.5 -408v-21zM761 539.001c0 90.667 -13.667 163.832 -41 219.499s-70 83.5 -128 83.5c-54 0 -93.833 -26.5 -119.5 -79.5s-38.5 -125.833 -38.5 -218.5l-1 -1h1v-235c16 -23.333 37.167 -40.666 63.5 -51.999s58.833 -17 97.5 -17
c59.333 0 101.833 24.5 127.5 73.5s38.5 117.5 38.5 205.5v21z" />
    <glyph glyph-name="sigma1" unicode="&#x3c2;" horiz-adv-x="1027" 
d="M557 1102c137.333 0 246.999 -38.1641 328.999 -114.497s121.667 -180.833 119 -313.5l-2 -6h-308c0 51.333 -11.667 93.166 -35 125.499s-57.666 48.5 -102.999 48.5c-66 0 -111.667 -26.167 -137 -78.5s-38 -122.833 -38 -211.5v-23
c0 -89.333 18.833 -154.333 56.5 -195s101.5 -67.334 191.5 -80.001c129.333 -20.667 223.166 -54.5 281.499 -101.5s87.5 -117.167 87.5 -210.5c-2 -88.667 -34.167 -169 -96.5 -241s-149.833 -121.667 -262.5 -149l-105 226c43.333 18.667 76.833 38.167 100.5 58.5
s35.5 45.166 35.5 74.499c0 24 -11.5 43.167 -34.5 57.5s-58.167 26.5 -105.5 36.5c-165.333 24 -287.666 79.333 -366.999 166s-119 206 -119 358v23c0 162.667 44.333 295 133 397s215 153 379 153z" />
    <glyph glyph-name="sigma" unicode="&#x3c3;" horiz-adv-x="1176" 
d="M1150 822l-248.001 -0.00292969c50.667 -41.333 91.834 -89.166 123.501 -143.499s47.5 -110.5 47.5 -168.5v-21c0 -151.333 -43.833 -274.166 -131.5 -368.499s-210.167 -141.5 -367.5 -141.5c-166 0 -295 51 -387 153s-138 234.667 -138 398v21
c0 156.667 46 284.334 138 383.001s220.333 148 385 148v-1h1v1h577v-260zM385.999 529.997c0 -90 14.333 -161 43 -213s77 -78 145 -78c58 0 99.5 26 124.5 78s37.5 123 37.5 213v21c0 82 -12.333 147.667 -37 197s-66.667 74 -126 74
c-66.667 0 -114.5 -24.833 -143.5 -74.5s-43.5 -115.167 -43.5 -196.5v-21z" />
    <glyph glyph-name="tau" unicode="&#x3c4;" horiz-adv-x="1077" 
d="M1052 824h-342v-824h-338v824h-337v258h1017v-258z" />
    <glyph glyph-name="upsilon" unicode="&#x3c5;" 
d="M436 1082l-0.000976562 -611.998c0 -83.333 13.667 -142.666 41 -177.999s64 -53 110 -53c58.667 0 101 31.167 127 93.5s39 140.166 39 233.499c-2 85.333 -10.667 171.166 -26 257.499s-36.666 172.5 -63.999 258.5h313c33.333 -68.667 60.5 -146.334 81.5 -233.001
s31.5 -181 31.5 -283c0 -182.667 -38 -326.167 -114 -430.5s-202 -156.5 -378 -156.5c-156 0 -278 40.667 -366 122s-132 205 -132 371v610h337z" />
    <glyph glyph-name="phi" unicode="&#x3c6;" horiz-adv-x="1567" 
d="M944 1082c190.667 0 332.501 -55.335 425.501 -166.002s139.5 -234.334 139.5 -371.001c0 -147.333 -44.667 -271.666 -134 -372.999s-233 -162.666 -431 -183.999v-466h-338v469c-199.333 26 -343.666 95 -432.999 207s-134 248.333 -134 409
c0 94 12.5 180.833 37.5 260.5s57.833 151.167 98.5 214.5h301c-30.667 -84.667 -54.834 -166 -72.501 -244s-26.834 -155 -27.501 -231c0 -93.333 17 -168.666 51 -225.999s91.667 -95 173 -113l6 1v813h338zM944.001 261.998l6 -2.00098c80 14 137 45 171 93
s51 112 51 192c-1.33301 84 -21 150.833 -59 200.5s-92.333 72.834 -163 69.501l-6 -2v-551z" />
    <glyph glyph-name="chi" unicode="&#x3c7;" horiz-adv-x="1073" 
d="M170 1099c108 0 187.498 -26.333 238.498 -79s90.833 -118 119.5 -196l48 -110l6 -1l179 369h343l-366 -738l174 -395c9.33301 -28 23.333 -52.167 42 -72.5s41 -34.5 67 -42.5c6 -2 14.167 -3.5 24.5 -4.5s20.5 -1.5 30.5 -1.5l-15 -251
c-27.333 -4.66699 -56.666 -7.5 -87.999 -8.5s-62 0.166992 -92 3.5c-74 9.33301 -131.5 46.333 -172.5 111s-80.167 145 -117.5 241l-26 59h-6l-197 -399h-327l370 764l-175 400c-12.667 31.333 -34.167 54.166 -64.5 68.499s-65.5 21.5 -105.5 21.5
c-9.33301 0 -20.666 -0.666992 -33.999 -2s-23.333 -2.66602 -30 -3.99902l-9 241c38.667 9.33301 70.5 16 95.5 20s54.167 6 87.5 6z" />
    <glyph glyph-name="psi" unicode="&#x3c8;" horiz-adv-x="1569" 
d="M945 1082l-0.000976562 -813.002l6 -1c78 18 134.5 55.833 169.5 113.5s52.5 132.834 52.5 225.501c-1.33301 76 -10.833 153 -28.5 231s-41.5 159.333 -71.5 244h301c40 -63.333 72.667 -134.833 98 -214.5s38 -166.5 38 -260.5
c0 -162.667 -44.833 -300.167 -134.5 -412.5s-233.167 -180.833 -430.5 -205.5v-467h-337v469c-175.333 22.667 -311 82.834 -407 180.501s-144 236.167 -144 415.5v495h338v-498c0 -92.667 18.333 -164.667 55 -216s87.334 -84.333 152.001 -99l6 1v812h337z" />
    <glyph glyph-name="omega" unicode="&#x3c9;" horiz-adv-x="1770" 
d="M532 1082c-39.333 -85.333 -70.167 -171.163 -92.5 -257.496s-34.5 -172.5 -36.5 -258.5c0 -94 11.333 -172 34 -234s61 -93 115 -93c45.333 0 82 20.833 110 62.5s42 108.167 42 199.5v371h361v-371c0 -91.333 14 -157.833 42 -199.5s64.667 -62.5 110 -62.5
c52.667 0 90.667 31.167 114 93.5s35 140.166 35 233.499c-2.66699 86 -15.167 172.167 -37.5 258.5s-53.166 172.166 -92.499 257.499h312c46 -68 83.167 -145.333 111.5 -232s42.5 -181.334 42.5 -284.001c0 -182.667 -36.667 -326.167 -110 -430.5
s-195 -156.5 -365 -156.5c-76 0 -143.333 17.667 -202 53s-105.667 87.333 -141 156c-36 -68.667 -83.333 -120.667 -142 -156s-125.334 -53 -200.001 -53c-170.667 0 -292.667 52.167 -366 156.5s-110 247.833 -110 430.5c0 102 14 196.167 42 282.5
s65.333 164.166 112 233.499h312z" />
    <glyph glyph-name="iotadieresis" unicode="&#x3ca;" horiz-adv-x="685" 
d="M445 1081l-0.00195312 -730.999c0 -40.667 6.66699 -69.167 20 -85.5s36 -24.5 68 -24.5c20.667 0 35.834 0.666992 45.501 2s28.167 5 55.5 11l23 -250c-32 -8.66699 -61.667 -14.834 -89 -18.501s-59.666 -5.5 -96.999 -5.5c-116.667 0 -206.667 31.167 -270 93.5
s-95 154.833 -95 277.5v731h339zM697.998 1257h-290v204h290v-204zM182.998 1257h-290v204h290v-204z" />
    <glyph glyph-name="upsilondieresis" unicode="&#x3cb;" 
d="M436 1082l-0.000976562 -611.998c0 -83.333 13.667 -142.666 41 -177.999s64 -53 110 -53c58.667 0 101 31.167 127 93.5s39 140.166 39 233.499c-2 85.333 -10.667 171.166 -26 257.499s-36.666 172.5 -63.999 258.5h313c33.333 -68.667 60.5 -146.334 81.5 -233.001
s31.5 -181 31.5 -283c0 -182.667 -38 -326.167 -114 -430.5s-202 -156.5 -378 -156.5c-156 0 -278 40.667 -366 122s-132 205 -132 371v610h337zM997.999 1258h-290v204h290v-204zM482.999 1258h-290v204h290v-204z" />
    <glyph glyph-name="omicrontonos" unicode="&#x3cc;" 
d="M51 551c0 162.667 46 295.167 138 397.5s220.333 153.5 385 153.5c165.333 0 294 -51.167 386 -153.5s138 -234.833 138 -397.5v-21c0 -163.333 -46 -296 -138 -398s-220 -153 -384 -153c-166 0 -295 51 -387 153s-138 234.667 -138 398v21zM389 530
c0 -90.667 14.167 -161.834 42.5 -213.501s76.5 -77.5 144.5 -77.5c66 0 113.333 26 142 78s43 123 43 213v21c0 88 -14.333 158.5 -43 211.5s-76.667 79.5 -144 79.5c-66.667 0 -114.167 -26.667 -142.5 -80s-42.5 -123.666 -42.5 -210.999v-21zM517 1539h313l-227 -346
h-169z" />
    <glyph glyph-name="upsilontonos" unicode="&#x3cd;" 
d="M436 1082l-0.000976562 -611.998c0 -83.333 13.667 -142.666 41 -177.999s64 -53 110 -53c58.667 0 101 31.167 127 93.5s39 140.166 39 233.499c-2 85.333 -10.667 171.166 -26 257.499s-36.666 172.5 -63.999 258.5h313c33.333 -68.667 60.5 -146.334 81.5 -233.001
s31.5 -181 31.5 -283c0 -182.667 -38 -326.167 -114 -430.5s-202 -156.5 -378 -156.5c-156 0 -278 40.667 -366 122s-132 205 -132 371v610h337zM536.999 1518h313l-227 -346h-169z" />
    <glyph glyph-name="omegatonos" unicode="&#x3ce;" horiz-adv-x="1770" 
d="M532 1082c-39.333 -85.333 -70.167 -171.163 -92.5 -257.496s-34.5 -172.5 -36.5 -258.5c0 -94 11.333 -172 34 -234s61 -93 115 -93c45.333 0 82 20.833 110 62.5s42 108.167 42 199.5v371h361v-371c0 -91.333 14 -157.833 42 -199.5s64.667 -62.5 110 -62.5
c52.667 0 90.667 31.167 114 93.5s35 140.166 35 233.499c-2.66699 86 -15.167 172.167 -37.5 258.5s-53.166 172.166 -92.499 257.499h312c46 -68 83.167 -145.333 111.5 -232s42.5 -181.334 42.5 -284.001c0 -182.667 -36.667 -326.167 -110 -430.5
s-195 -156.5 -365 -156.5c-76 0 -143.333 17.667 -202 53s-105.667 87.333 -141 156c-36 -68.667 -83.333 -120.667 -142 -156s-125.334 -53 -200.001 -53c-170.667 0 -292.667 52.167 -366 156.5s-110 247.833 -110 430.5c0 102 14 196.167 42 282.5
s65.333 164.166 112 233.499h312zM825.999 1518h313l-227 -346h-169z" />
    <glyph glyph-name="uni03D1" unicode="&#x3d1;" horiz-adv-x="1461" 
d="M754 250c73.333 0 131.166 24.1699 173.499 72.5029s64.833 115.5 67.5 201.5c-122.667 10.667 -226 54.167 -310 130.5s-126 168.833 -126 277.5v125c0 127.333 37.833 229.166 113.5 305.499s174.167 114.5 295.5 114.5c118.667 0 212.834 -37.333 282.501 -112
s104.5 -177.334 104.5 -308.001v-522c0 -168 -55.167 -302.667 -165.5 -404s-255.5 -152 -435.5 -152c-186 0 -337 52.5 -453 157.5s-174 237.833 -174 398.5v717l361 2v-719c0 -84.667 23.833 -153.334 71.5 -206.001s112.5 -79 194.5 -79zM874 930.003
c0 -42.667 10.333 -79.167 31 -109.5s48.667 -48.5 84 -54.5l6 2v330c0 29.333 -4.33301 51.333 -13 66s-21 22 -37 22c-22 0 -39.333 -7.66699 -52 -23s-19 -37 -19 -65v-168z" />
    <glyph glyph-name="uni03D2" unicode="&#x3d2;" horiz-adv-x="1258" 
d="M784 1184c43.333 112 92.668 190.5 148.001 235.5s134.666 67.5 237.999 67.5c19.333 0 37.5 -1.33301 54.5 -4s32.167 -6.66699 45.5 -12l-25 -256c-2 0 -10.167 0.5 -24.5 1.5s-24.833 1.5 -31.5 1.5c-26.667 0 -49.334 -10.333 -68.001 -31s-34.667 -47 -48 -79
l-279 -683h-1v-425h-337v444l-269 664c-15.333 32.667 -32.333 59.167 -51 79.5s-40.667 30.5 -66 30.5c-8 0 -18.833 -0.5 -32.5 -1.5s-21.5 -1.5 -23.5 -1.5l-23 256c11.333 5.33301 25.5 9.33301 42.5 12s35.833 4 56.5 4c104 0 183.333 -21.167 238 -63.5
s103.334 -118.833 146.001 -229.5l134 -374l18 -100h6l19 100z" />
    <glyph glyph-name="uni03D6" unicode="&#x3d6;" horiz-adv-x="1740" 
d="M1752 860h-125.002c14.667 -45.333 26.167 -92.5 34.5 -141.5s12.5 -99.833 12.5 -152.5c0 -182.667 -35.5 -326.167 -106.5 -430.5s-188.5 -156.5 -352.5 -156.5c-76.667 0 -144.667 17.833 -204 53.5s-106.666 87.834 -141.999 156.501
c-36 -68.667 -83.667 -120.834 -143 -156.501s-126.666 -53.5 -201.999 -53.5c-165.333 0 -283.5 52.167 -354.5 156.5s-106.5 247.833 -106.5 430.5c0 52.667 4 103.5 12 152.5s19.667 96.167 35 141.5h-121v222h1763v-222zM1338 566c-2 48.667 -6.83301 97.5 -14.5 146.5
s-18.5 98.167 -32.5 147.5h-844c-14 -49.333 -24.833 -98.5 -32.5 -147.5s-12.167 -97.833 -13.5 -146.5c0 -94 10 -172 30 -234s54.333 -93 103 -93c46 0 83.333 20.833 112 62.5s43 108.167 43 199.5v183h360v-183c0 -91.333 14.333 -157.833 43 -199.5
s66 -62.5 112 -62.5c48 0 82.333 31 103 93s31 140 31 234z" />
    <glyph glyph-name="uni0400" unicode="&#x400;" horiz-adv-x="1165" 
d="M1024 623h-571v-363h673v-260h-1012v1456h1014v-260h-675v-313h571v-260zM771 1559h-275l-282 260l2 6h347z" />
    <glyph glyph-name="uni0401" unicode="&#x401;" horiz-adv-x="1165" 
d="M1024 623h-571v-363h673v-260h-1012v1456h1014v-260h-675v-313h571v-260zM994 1601h-290v204h290v-204zM479 1601h-290v204h290v-204z" />
    <glyph glyph-name="uni0402" unicode="&#x402;" horiz-adv-x="1529" 
d="M1162 1196l-455.999 0.000976562v-328c41.333 8.66699 80.166 15.5 116.499 20.5s73.5 7.5 111.5 7.5c166.667 0 299.5 -37.833 398.5 -113.5s148.5 -188.167 148.5 -337.5c0 -126 -44.833 -234.833 -134.5 -326.5s-235.5 -136.834 -437.5 -135.501l-5 3v238
c100 0 164.5 19.5 193.5 58.5s44.5 86.5 46.5 142.5c0 60 -19 110.167 -57 150.5s-89 60.5 -153 60.5c-45.333 0 -85.833 -1.16699 -121.5 -3.5s-71.167 -5.83301 -106.5 -10.5v-622h-338v1196h-343v260h1137v-260z" />
    <glyph glyph-name="uni0403" unicode="&#x403;" horiz-adv-x="1142" 
d="M1090 1196h-637v-1196h-339v1456h976v-260zM632 1827h348l2 -6l-280 -260h-276z" />
    <glyph glyph-name="uni0404" unicode="&#x404;" horiz-adv-x="1241" 
d="M1233 512l2.00195 -6c-6.66699 -170.667 -57.167 -301 -151.5 -391s-231.166 -135 -410.499 -135c-180 0 -326.333 55.333 -439 166s-169 254.334 -169 431.001v304c0 176 54.167 319.5 162.5 430.5s249.166 166.5 422.499 166.5c184 0 324.667 -46.333 422 -139
s152.333 -224.334 165 -395.001l-2 -6h-329c-4.66699 94.667 -25.834 165 -63.501 211s-101.834 69 -192.501 69c-76.667 0 -137 -30.833 -181 -92.5s-66 -142.5 -66 -242.5v-24h406v-261h-406v-21c0 -100.667 24 -182 72 -244s114 -93 198 -93c81.333 0 139 21.667 173 65
s53.333 112.333 58 207h329z" />
    <glyph glyph-name="uni0405" unicode="&#x405;" horiz-adv-x="1293" 
d="M887 386c0 51.333 -17 91.0029 -51 119.003s-95 57.667 -183 89c-184 58 -320.333 120.167 -409 186.5s-133 162.166 -133 287.499c0 122 52.833 220.667 158.5 296s239.834 113 402.501 113c161.333 0 293.5 -41.5 396.5 -124.5s152.833 -189.833 149.5 -320.5l-2 -6
h-328c0 58 -19.667 105.167 -59 141.5s-93.666 54.5 -162.999 54.5c-68 0 -121.333 -15 -160 -45s-58 -67 -58 -111c0 -42.667 19.5 -76.834 58.5 -102.501s112.167 -57.834 219.5 -96.501c165.333 -49.333 289.833 -110 373.5 -182s125.5 -171 125.5 -297
c0 -128 -49.833 -228.167 -149.5 -300.5s-231.834 -108.5 -396.501 -108.5c-165.333 0 -308.333 41.5 -429 124.5s-179.334 202.5 -176.001 358.5l2 6h329c0 -84 22.667 -144 68 -180s114 -54 206 -54c70 0 122.167 14 156.5 42s51.5 64.667 51.5 110z" />
    <glyph glyph-name="uni0406" unicode="&#x406;" horiz-adv-x="611" 
d="M474 0h-337v1456h337v-1456z" />
    <glyph glyph-name="uni0407" unicode="&#x407;" horiz-adv-x="611" 
d="M474 0h-337v1456h337v-1456zM710 1601h-290v204h290v-204zM195 1601h-290v204h290v-204z" />
    <glyph glyph-name="uni0408" unicode="&#x408;" horiz-adv-x="1188" 
d="M737 1456h337.001v-999c0 -146.667 -48.167 -263 -144.5 -349s-216.833 -129 -361.5 -129c-158 0 -282.833 38 -374.5 114s-135.834 188.333 -132.501 337l2 6h330c0 -70.667 16.333 -121.167 49 -151.5s74.667 -45.5 126 -45.5c46 0 85.667 19 119 57s50 91.667 50 161
v999z" />
    <glyph glyph-name="uni0409" unicode="&#x409;" horiz-adv-x="2153" 
d="M1330 1456l-0.00195312 -479h196c172.667 0 311.5 -45.667 416.5 -137s157.5 -208.333 157.5 -351c0 -144 -52.5 -261.5 -157.5 -352.5s-243.833 -136.5 -416.5 -136.5h-533v1196h-329v-388c0 -290.667 -49.667 -498 -149 -622s-245.666 -186 -438.999 -186h-38v260h39
c100.667 0 167.334 37.833 200.001 113.5s49 220.5 49 434.5v648h1004zM1330 717l-0.000976562 -457.001h196c74 0 132 22.333 174 67s63 99.334 63 164.001c0 62.667 -21.167 116 -63.5 160s-100.166 66 -173.499 66h-196z" />
    <glyph glyph-name="uni040A" unicode="&#x40a;" horiz-adv-x="2151" 
d="M453 846h537v610h337v-479h196c172.667 0 311.667 -45.667 417 -137s158 -208.333 158 -351c0 -144 -52.5 -261.5 -157.5 -352.5s-244.167 -136.5 -417.5 -136.5h-533v586h-537v-586h-339v1456h339v-610zM1327 717l-0.000976562 -457.001h196c74 0 132 22.333 174 67
s63 99.334 63 164.001c0 62.667 -21.167 116 -63.5 160s-100.166 66 -173.499 66h-196z" />
    <glyph glyph-name="uni040B" unicode="&#x40b;" horiz-adv-x="1545" 
d="M1125 1196l-443 -0.00195312v-272c32.667 3.33301 65.167 6.33301 97.5 9s56.833 4 73.5 4c186.667 0 332.834 -40.833 438.501 -122.5s158.5 -204.5 158.5 -368.5v-445h-337v445c0 86.667 -20.667 146.834 -62 180.501s-107.333 50.5 -198 50.5
c-20 0 -45.833 -1.16699 -77.5 -3.5s-62.834 -5.16602 -93.501 -8.49902v-665h-339v1196h-321v260h1103v-260z" />
    <glyph glyph-name="uni040C" unicode="&#x40c;" horiz-adv-x="1325" 
d="M609 584h-156v-584h-339v1456h339v-570h115l320 570h420l-451 -659l490 -797h-412zM624 1827h348l2 -6l-280 -260h-276z" />
    <glyph glyph-name="uni040D" unicode="&#x40d;" horiz-adv-x="1423" 
d="M975 1456h338v-1456h-338v902l-6 1l-533 -903h-337v1456h337v-901l6 -1zM886 1559h-275l-282 260l2 6h347z" />
    <glyph glyph-name="uni040E" unicode="&#x40e;" horiz-adv-x="1295" 
d="M680 821l2 -7h6l245 642h348l-491 -1160c-44.667 -100 -98.5 -177.833 -161.5 -233.5s-148.833 -83.5 -257.5 -83.5c-23.333 0 -44 0.166992 -62 0.5s-33 0.833008 -45 1.5l-5 262c6.66699 -1.33301 17.5 -2.33301 32.5 -3s28.167 -1 39.5 -1
c56.667 0 99.167 10.667 127.5 32s50.5 56 66.5 104l14 40l-528 1041h360zM1009 1908l2.00195 -6c3.33301 -88.667 -28.334 -161 -95.001 -217s-156 -84 -268 -84c-112.667 0 -202.334 28 -269.001 84s-98 128.333 -94 217l2 6h243c0 -31.333 9.5 -57 28.5 -77
s48.833 -30 89.5 -30c40 0 69.5 10 88.5 30s28.5 45.667 28.5 77h244z" />
    <glyph glyph-name="uni040F" unicode="&#x40f;" horiz-adv-x="1423" 
d="M94 1456h337v-1196h539v1196h338v-1456h-422v-360h-339v360h-453v1456z" />
    <glyph glyph-name="uni0410" unicode="&#x410;" horiz-adv-x="1300" 
d="M888 283h-459l-82 -283h-340l470 1456h363l471 -1456h-340zM504 543h309l-152 521h-6z" />
    <glyph glyph-name="uni0411" unicode="&#x411;" horiz-adv-x="1279" 
d="M1092 1196l-637 -0.000976562v-249h196c174 0 313.167 -42.667 417.5 -128s156.5 -198.666 156.5 -339.999c0 -142.667 -52.333 -258.167 -157 -346.5s-243.667 -132.5 -417 -132.5h-535v1456h976v-260zM455 686.999v-427h196c74.667 0 132.834 20.833 174.501 62.5
s62.5 94.5 62.5 158.5c0 60.667 -20.833 110.167 -62.5 148.5s-99.834 57.5 -174.501 57.5h-196z" />
    </font>
</defs>
</svg>
