<?xml version="1.0" standalone="no"?>
<!DOCTYPE svg PUBLIC "-//W3C//DTD SVG 1.1//EN" "http://www.w3.org/Graphics/SVG/1.1/DTD/svg11.dtd" >
<svg>
<metadata>
Created by FontForge 20090914 at Wed Jan 11 18:08:03 2017
 By www-data
Font data copyright Google 2012
</metadata>
<defs>
<font id="Roboto-Thin" horiz-adv-x="1121" >
  <font-face 
    font-family="Roboto"
    font-weight="250"
    font-stretch="normal"
    units-per-em="2048"
    panose-1="0 0 0 0 0 0 0 0 0 0"
    ascent="1638"
    descent="-410"
    x-height="1082"
    cap-height="1456"
    bbox="-963 -554.996 2308 2146"
    underline-thickness="100"
    underline-position="-100"
    unicode-range="U+0009-U+FFFD"
  />
<missing-glyph horiz-adv-x="490" 
 />
    <glyph glyph-name="fi" unicode="fi" horiz-adv-x="1067" 
d="M254 0l0.000976562 1027h-188v55h188v158c0 108.667 28.5 192.667 85.5 252s136.167 89 237.5 89c44.667 0 89.667 -4.5 135 -13.5s89.666 -23.5 132.999 -43.5l-8 -52c-44 19.333 -84.5 33.333 -121.5 42s-82.833 13 -137.5 13c-84 0 -150 -25.333 -198 -76
s-72 -121 -72 -211v-158h286v-55h-286v-1027h-54zM884.001 0h-54v1082h54v-1082z" />
    <glyph glyph-name=".notdef" horiz-adv-x="490" 
 />
    <glyph glyph-name="uni0002" horiz-adv-x="0" 
 />
    <glyph glyph-name="uni0002" horiz-adv-x="0" 
 />
    <glyph glyph-name="uni0009" unicode="&#x9;" horiz-adv-x="0" 
 />
    <glyph glyph-name="nonmarkingreturn" unicode="&#xd;" horiz-adv-x="490" 
 />
    <glyph glyph-name="space" unicode=" " horiz-adv-x="490" 
 />
    <glyph glyph-name="exclam" unicode="!" horiz-adv-x="397" 
d="M221 478h-54v978h54v-978zM242 0h-95v134h95v-134z" />
    <glyph glyph-name="quotedbl" unicode="&#x22;" horiz-adv-x="521" 
d="M220 1393l-50 -271h-50l45 268v170h55v-167zM401 1393l-50 -271h-50l46 268v170h54v-167z" />
    <glyph glyph-name="numbersign" unicode="#" horiz-adv-x="1265" 
d="M756 410h-364l-74 -410h-56l74 410h-271v52h281l95 524h-300v54h310l75 416h56l-76 -416h365l76 416h56l-76 -416h254v-54h-264l-96 -524h285v-52h-294l-75 -410h-56zM402 462h363l96 524h-365z" />
    <glyph glyph-name="dollar" unicode="$" 
d="M947 344c0 86.667 -26.335 155.171 -79.002 205.504s-150 101.166 -292 152.499c-143.333 47.333 -247.166 99.333 -311.499 156s-96.5 140.667 -96.5 252c0 106.667 34.833 193.167 104.5 259.5s163.5 101.833 281.5 106.5v187h55v-187
c120.667 -6.66699 214.5 -46.834 281.5 -120.501s99.5 -174.834 97.5 -303.501l-2 -5h-47c0 110.667 -31.667 201.167 -95 271.5s-151.666 105.5 -264.999 105.5c-116 0 -204.5 -30.5 -265.5 -91.5s-91.5 -134.5 -91.5 -220.5c0 -87.333 24.5 -156.666 73.5 -207.999
s148.167 -101.333 297.5 -150c140 -48.667 243 -101.334 309 -158.001s99 -140 99 -250c0 -107.333 -34.667 -193.5 -104 -258.5s-161.666 -100.833 -276.999 -107.5v-188h-55v187c-126 4 -231.333 40 -316 108s-125.334 173.333 -122.001 316l2 6h46
c0 -132.667 40.5 -228.667 121.5 -288s177.5 -89 289.5 -89c108.667 0 196 30.667 262 92s99 134.666 99 219.999z" />
    <glyph glyph-name="percent" unicode="%" horiz-adv-x="1527" 
d="M114 1176c0 84 25.333 155.167 76 213.5s116 87.5 196 87.5c79.333 0 144.333 -29.167 195 -87.5s76 -129.5 76 -213.5v-77c0 -84 -25.167 -154.833 -75.5 -212.5s-114.833 -86.5 -193.5 -86.5c-81.333 0 -147.333 28.833 -198 86.5s-76 128.5 -76 212.5v77zM169 1099
c0 -66.667 18.833 -124.001 56.5 -172.001s91.834 -72 162.501 -72c68 0 120.667 24 158 72s56 105.333 56 172v77c0 66.667 -18.833 124.334 -56.5 173.001s-90.834 73 -159.501 73s-122 -24.5 -160 -73.5s-57 -106.5 -57 -172.5v-77zM870 356.999
c0 83.333 25.167 154.167 75.5 212.5s115.5 87.5 195.5 87.5s145.333 -29 196 -87s76 -129 76 -213v-78c0 -84 -25.167 -155 -75.5 -213s-115.166 -87 -194.499 -87c-80.667 0 -146.334 29 -197.001 87s-76 129 -76 213v78zM925 279c0 -67.333 18.668 -125 56.001 -173
s91.333 -72 162 -72c68.667 0 121.667 24 159 72s56 105.667 56 173v78c0 70.667 -18.667 129.167 -56 175.5s-91 69.5 -161 69.5c-68.667 0 -121.834 -23.333 -159.501 -70s-56.5 -105 -56.5 -175v-78zM462.001 131l-45 31l711 1138l45 -31z" />
    <glyph glyph-name="ampersand" unicode="&#x26;" horiz-adv-x="1247" 
d="M422 803c-54.667 68.667 -94.998 131.33 -120.998 187.997s-39 115.334 -39 176.001c0 99.333 27.167 175.833 81.5 229.5s128.833 80.5 223.5 80.5c88 0 156 -24 204 -72s72 -111.333 72 -190c0 -56 -12.833 -103.5 -38.5 -142.5s-61.834 -77.167 -108.501 -114.5
l-202 -161l475 -540c36 50.667 64.167 107.667 84.5 171s30.5 131.333 30.5 204h55c0 -83.333 -11.667 -159.166 -35 -227.499s-56 -131.166 -98 -188.499l185 -211l-2 -5h-60l-157 177l-8 -8c-2 -2 -3.33301 -3.66699 -4 -5c-60 -59.333 -122.833 -105 -188.5 -137
s-139.834 -48 -222.501 -48c-134.667 0 -240.667 33.5 -318 100.5s-116 157.833 -116 272.5c0 76 22.5 146.333 67.5 211s107.833 131 188.5 199zM549.002 32.9961c73.333 0 143.667 15.832 211 47.499s126.333 76.834 177 135.501l-449 509
c-5.33301 5.33301 -10.5 11 -15.5 17l-18.5 22l-52 -41c-91.333 -78.667 -153 -147.167 -185 -205.5s-48 -113.5 -48 -165.5c0 -89.333 32.667 -164.833 98 -226.5s159.333 -92.5 282 -92.5zM317.003 1169c0 -52.667 11.667 -107.001 35 -163.001s60 -113.333 110 -172
l209 166c40 33.333 69.333 67.833 88 103.5s28 72.834 28 111.501c0 62.667 -18.833 113 -56.5 151s-92.167 57 -163.5 57c-80 0 -141.667 -24.167 -185 -72.5s-65 -108.833 -65 -181.5z" />
    <glyph glyph-name="quotesingle" unicode="'" horiz-adv-x="340" 
d="M220 1391l-50 -269h-50l45 267v171h55v-169z" />
    <glyph glyph-name="parenleft" unicode="(" horiz-adv-x="607" 
d="M148 586c0 225.333 40.1689 436.168 120.502 632.501s177.166 328.833 290.499 397.5h6l16 -36c-102 -67.333 -190.667 -196.5 -266 -387.5s-113 -391.833 -113 -602.5v-26c0 -211.333 37.667 -412.5 113 -603.5s164 -320.167 266 -387.5l-16 -36h-6
c-114.667 70 -211.834 200.167 -291.501 390.5s-119.5 403.166 -119.5 638.499v20z" />
    <glyph glyph-name="parenright" unicode=")" horiz-adv-x="623" 
d="M461 566c0 -235.333 -40.001 -448.168 -120.001 -638.501s-177 -320.5 -291 -390.5h-6l-16 36c101.333 67.333 189.833 196.5 265.5 387.5s113.5 392.167 113.5 603.5v26c0 210.667 -37.833 411.5 -113.5 602.5s-164.167 320.167 -265.5 387.5l16 36h6
c112.667 -68.667 209.334 -201.167 290.001 -397.5s121 -407.166 121 -632.499v-20z" />
    <glyph glyph-name="asterisk" unicode="*" horiz-adv-x="856" 
d="M393 1017l-363 124l18 54l362 -133l1 394h56l-7 -395l352 143l20 -53l-360 -137l249 -317l-47 -33l-242 322l-228 -325l-45 32z" />
    <glyph glyph-name="plus" unicode="+" horiz-adv-x="1151" 
d="M590 702h481v-53h-481v-503h-55v503h-462v53h462v504h55v-504z" />
    <glyph glyph-name="comma" unicode="," horiz-adv-x="383" 
d="M235 -8l-70 -250h-51l67 246v171h54v-167z" />
    <glyph glyph-name="hyphen" unicode="-" horiz-adv-x="607" 
d="M531 599h-470v54h470v-54z" />
    <glyph glyph-name="period" unicode="." horiz-adv-x="439" 
d="M259 0h-86v130h86v-130z" />
    <glyph glyph-name="slash" unicode="/" horiz-adv-x="782" 
d="M101 -125h-59l608 1581h59z" />
    <glyph glyph-name="zero" unicode="0" horiz-adv-x="1167" 
d="M1027 574c0 -190 -38.501 -336.667 -115.501 -440s-185.833 -155 -326.5 -155s-250 51.833 -328 155.5s-117 250.167 -117 439.5v308c0 189.333 38.667 335.833 116 439.5s186.333 155.5 327 155.5s249.834 -51.833 327.501 -155.5s116.5 -250.167 116.5 -439.5v-308z
M972.999 882c0 169.333 -33.332 301.832 -99.999 397.499s-163.334 143.5 -290.001 143.5s-223.167 -47.833 -289.5 -143.5s-99.5 -228.167 -99.5 -397.5v-306c0 -168 33.5 -300.5 100.5 -397.5s163.833 -145.5 290.5 -145.5c126 0 222.167 48.333 288.5 145
s99.5 229.334 99.5 398.001v306z" />
    <glyph glyph-name="one" unicode="1" 
d="M659 -13h-54v1425l-398 -78v46l452 84v-1477z" />
    <glyph glyph-name="two" unicode="2" 
d="M1024 0h-871.003v54l477 550c90.667 104.667 156.834 195 198.501 271s62.5 146.333 62.5 211c0 106 -29.333 188.667 -88 248s-144.334 89 -257.001 89c-119.333 0 -211.666 -35 -276.999 -105s-98 -160.667 -98 -272h-46l-2 6c-3.33301 118 33.834 218.333 111.501 301
s181.5 124 311.5 124c120.667 0 217.5 -34.167 290.5 -102.5s109.5 -164.5 109.5 -288.5c0 -80.667 -26.167 -163 -78.5 -247s-126.166 -181.667 -221.499 -293l-417 -487l2 -5h793v-54z" />
    <glyph glyph-name="three" unicode="3" 
d="M417 771l111.001 -0.000976562c122 0 218 30.333 288 91s105 135.334 105 224.001c0 98 -30.167 178.667 -90.5 242s-149.166 95 -266.499 95c-108 0 -197.667 -31.667 -269 -95s-107 -147.666 -107 -252.999h-46l-2 6c-3.33301 118 36.167 213.5 118.5 286.5
s184.166 109.5 305.499 109.5c125.333 0 225.166 -35.5 299.499 -106.5s111.5 -167.167 111.5 -288.5c0 -76.667 -24.167 -145.334 -72.5 -206.001s-113.5 -104.334 -195.5 -131.001c94.667 -23.333 168.334 -65.666 221.001 -126.999s79 -138.666 79 -231.999
c0 -126.667 -40.333 -226.167 -121 -298.5s-185 -108.5 -313 -108.5c-123.333 0 -232.333 36.5 -327 109.5s-140.334 176.5 -137.001 310.5l2 6h46c0 -108 39.5 -197 118.5 -267s178.167 -105 297.5 -105c120 0 213.333 30.833 280 92.5s100 147.167 100 256.5
c0 113.333 -38.167 197.166 -114.5 251.499s-179.833 81.5 -310.5 81.5h-111v56z" />
    <glyph glyph-name="four" unicode="4" 
d="M842 451h252v-54h-252v-397h-54v397h-706v30l695 1029h65v-1005zM166 451h622v929l-6 2l-78 -129z" />
    <glyph glyph-name="five" unicode="5" 
d="M201 662l78 794.001h690v-53h-641l-61 -618c42 42 87.833 73.667 137.5 95s122.834 33.333 219.501 36c116 3.33301 211.667 -36.334 287 -119.001s113 -193.667 113 -333c0 -148.667 -35 -266.667 -105 -354s-178.333 -131 -325 -131c-118 0 -216 33.5 -294 100.5
s-115.333 166.167 -112 297.5l2 6h47c0 -114.667 32 -201.667 96 -261s151 -89 261 -89c129.333 0 224.166 35.667 284.499 107s90.5 178.666 90.5 321.999c0 122.667 -30.167 219.334 -90.5 290.001s-144.833 106 -253.5 106c-106.667 0 -190.5 -17.833 -251.5 -53.5
s-104.833 -88.5 -131.5 -158.5z" />
    <glyph glyph-name="six" unicode="6" 
d="M623 1477c50.667 0 100.166 -5.49902 148.499 -16.499s93.833 -28.833 136.5 -53.5l-21 -51c-44 25.333 -84.833 42.833 -122.5 52.5s-84.834 14.5 -141.501 14.5c-111.333 0 -205.666 -42.333 -282.999 -127s-116 -196.334 -116 -335.001v-255
c31.333 72.667 81.5 132.667 150.5 180s148.833 71 239.5 71c131.333 0 234.333 -45.333 309 -136s112 -211 112 -361c0 -138 -40.5 -252.667 -121.5 -344s-184.167 -137 -309.5 -137c-126.667 0 -230.667 48.5 -312 145.5s-122 226.167 -122 387.5v448
c0 151.333 43.833 275.333 131.5 372s194.834 145 321.501 145zM223.999 556.001v-43c0 -144 35.333 -260.167 106 -348.5s162 -132.5 274 -132.5c111.333 0 202 42 272 126s105 184.667 105 302c0 134.667 -32 242.167 -96 322.5s-156.667 120.5 -278 120.5
c-102 0 -191.167 -34.167 -267.5 -102.5s-114.5 -149.833 -114.5 -244.5h-1z" />
    <glyph glyph-name="seven" unicode="7" 
d="M1007 1402c-143.333 -166.667 -265.169 -356.834 -365.502 -570.501s-165.5 -460.5 -195.5 -740.5l-6 -91h-54l6 91c28.667 262.667 89.834 502.334 183.501 719.001s215.834 414 366.501 592h-865v54h930v-54z" />
    <glyph glyph-name="eight" unicode="8" 
d="M984 1086c0 -81.333 -24.833 -152.333 -74.5 -213s-114.834 -103.334 -195.501 -128.001c92.667 -25.333 167.834 -70.666 225.501 -135.999s86.5 -142 86.5 -230c0 -128 -43.5 -226.667 -130.5 -296s-197.833 -104 -332.5 -104c-137.333 0 -249.166 34.667 -335.499 104
s-129.5 168 -129.5 296c0 88.667 28.167 165.667 84.5 231s131.166 110.333 224.499 135c-81.333 24.667 -146.333 67.167 -195 127.5s-73 131.5 -73 213.5c0 122.667 39.5 218.5 118.5 287.5s180.167 103.5 303.5 103.5c122 0 223 -34.667 303 -104s120 -165 120 -287z
M971 374c0 102.667 -39.333 185.667 -118 249s-176 95 -292 95c-118 0 -215.667 -31.667 -293 -95s-116 -146.333 -116 -249c0 -107.333 38.333 -191 115 -251s175.334 -90 296.001 -90c117.333 0 214.666 30.167 291.999 90.5s116 143.833 116 250.5zM930 1091
c0 95.333 -35.668 174.5 -107.001 237.5s-158.666 94.5 -261.999 94.5c-107.333 0 -195.5 -30.167 -264.5 -90.5s-103.5 -140.833 -103.5 -241.5c0 -97.333 34.667 -174.833 104 -232.5s158 -86.5 266 -86.5c104.667 0 192 29 262 87s105 135.333 105 232z" />
    <glyph glyph-name="nine" unicode="9" 
d="M512 33c123.333 0 220.667 37.667 292 113s107 179.333 107 312v283c-37.333 -72.667 -90.166 -129.667 -158.499 -171s-144.833 -62 -229.5 -62c-125.333 0 -228 45.833 -308 137.5s-120 202.5 -120 332.5c0 138 41 255.667 123 353s186.333 146 313 146
c130.667 0 237 -44.333 319 -133s123 -215.667 123 -381v-503c0 -149.333 -42.167 -266.833 -126.5 -352.5s-195.833 -128.5 -334.5 -128.5c-52 0 -104 5.33301 -156 16s-104.333 26.334 -157 47.001l16 57c50 -22.667 97.667 -39.334 143 -50.001s96.666 -16 153.999 -16z
M523.001 561c98.667 0 181.331 28.499 247.998 85.499s113.334 125.167 140.001 204.5v111c0 148 -34.833 261.833 -104.5 341.5s-160.167 119.5 -271.5 119.5c-112 0 -203 -44.667 -273 -134s-105 -193 -105 -311c0 -113.333 33.333 -211.166 100 -293.499
s155.334 -123.5 266.001 -123.5z" />
    <glyph glyph-name="colon" unicode=":" horiz-adv-x="364" 
d="M232 0h-86v130h86v-130zM232 949h-86v130h86v-130z" />
    <glyph glyph-name="semicolon" unicode=";" horiz-adv-x="364" 
d="M239 952h-86v130h86v-130zM236 -8l-70 -250h-51l67 246v171h54v-167z" />
    <glyph glyph-name="less" unicode="&#x3c;" horiz-adv-x="1053" 
d="M258 577l-119 -37v-6l119 -36l661 -303v-59l-837 379v50l837 378v-58z" />
    <glyph glyph-name="equal" unicode="=" horiz-adv-x="1142" 
d="M981 843h-834v54h834v-54zM981 436h-834v54h834v-54z" />
    <glyph glyph-name="greater" unicode="&#x3e;" horiz-adv-x="1053" 
d="M114 886v58l836 -378v-50l-836 -379v59l660 307l118 36v6l-118 37z" />
    <glyph glyph-name="question" unicode="?" horiz-adv-x="893" 
d="M395 400c0.666992 78 7.49902 133.168 20.499 165.501s47.833 74.5 104.5 126.5c80.667 77.333 138.667 143.166 174 197.499s53 128.5 53 222.5c0 97.333 -26 173.666 -78 228.999s-125.667 83 -221 83c-94.667 0 -168 -28.167 -220 -84.5s-79 -130.833 -81 -223.5h-46
l-3 6c-1.33301 113.333 30.834 200.833 96.501 262.5s150.167 92.5 253.5 92.5c109.333 0 195.5 -33.667 258.5 -101s94.5 -156 94.5 -266c0 -94 -20.833 -175 -62.5 -243s-105.167 -140.333 -190.5 -217c-46 -35.333 -74 -69.166 -84 -101.499s-15 -81.833 -15 -148.5h-54z
M472.999 0.000976562h-82v106h82v-106z" />
    <glyph glyph-name="at" unicode="@" horiz-adv-x="1902" 
d="M1767 523c-6.66699 -146 -44.667 -273.17 -114 -381.503s-168 -162.5 -296 -162.5c-55.333 0 -100.333 20.333 -135 61s-55 97 -61 169c-36.667 -76 -83 -133.333 -139 -172s-120.333 -58 -193 -58c-90.667 0 -158.334 39.667 -203.001 119s-60.667 185.333 -48 318
c15.333 166.667 63.333 300.334 144 401.001s178.334 151 293.001 151c55.333 0 100.333 -9.16699 135 -27.5s73 -45.833 115 -82.5l-49 -565c-7.33301 -101.333 4.83398 -169.833 36.501 -205.5s67.5 -53.5 107.5 -53.5c105.333 0 188.166 44.833 248.499 134.5
s94.166 207.834 101.499 354.501c13.333 264 -38 468.5 -154 613.5s-302.333 217.5 -559 217.5c-224 0 -412.167 -79.833 -564.5 -239.5s-235.166 -371.834 -248.499 -636.501c-13.333 -255.333 44.834 -465.166 174.501 -629.499s313.5 -246.5 551.5 -246.5
c58 0 117.167 7.33301 177.5 22s111.166 34 152.499 58l24 -46c-41.333 -26.667 -96 -48.167 -164 -64.5s-132.667 -24.5 -194 -24.5c-253.333 0 -449.333 83.167 -588 249.5s-201.667 393.5 -189 681.5c12 284.667 97.167 511.334 255.5 680.001s363.833 253 616.5 253
c268 0 465.5 -78 592.5 -234s184.833 -374 173.5 -654zM632 415.997c-12.667 -111.333 -2.16602 -202.999 31.501 -274.999s88.167 -108 163.5 -108c72 0 136.667 22.167 194 66.5s105.333 126.166 144 245.499l42 486c-22.667 26 -50.167 46.167 -82.5 60.5
s-69.833 21.5 -112.5 21.5c-94.667 0 -177.334 -42.167 -248.001 -126.5s-114.667 -207.833 -132 -370.5z" />
    <glyph glyph-name="A" unicode="A" horiz-adv-x="1223" 
d="M967 435h-712l-162 -435h-59l544 1456h66l545 -1456h-59zM275 489h672l-305 820l-28 82h-6l-27 -82z" />
    <glyph glyph-name="B" unicode="B" horiz-adv-x="1235" 
d="M200 0l-0.000976562 1456h383c150.667 0 267.667 -31 351 -93s125 -155.333 125 -280c0 -86.667 -22.333 -159.667 -67 -219s-107.667 -96.333 -189 -111c90.667 -12 167 -51.667 229 -119s93 -145 93 -233c0 -127.333 -41.167 -226 -123.5 -296
s-191.166 -105 -326.499 -105h-475zM253.999 719l-0.000976562 -665.001h421c122.667 0 219.334 30.333 290.001 91s106 145.334 106 254.001c0 89.333 -33.833 165 -101.5 227s-162.5 93 -284.5 93h-431zM253.998 772.999h349c132.667 0 232.667 25.833 300 77.5
s101 130.5 101 236.5c0 104 -35.5 182.5 -106.5 235.5s-175.833 79.5 -314.5 79.5h-329v-629z" />
    <glyph glyph-name="C" unicode="C" horiz-adv-x="1327" 
d="M1172 446l2 -6c2.66699 -149.333 -42.5 -263.5 -135.5 -342.5s-215.5 -118.5 -367.5 -118.5c-159.333 0 -287 58.833 -383 176.5s-144 272.167 -144 463.5v218c0 190.667 48 345 144 463s223.667 177 383 177c152 0 274.5 -39.667 367.5 -119
s138.167 -192.666 135.5 -339.999l-2 -6h-46c0 131.333 -40.833 232.666 -122.5 303.999s-192.5 107 -332.5 107c-142 0 -256.333 -53.667 -343 -161s-130 -248.333 -130 -423v-220c0 -176.667 43.333 -318.5 130 -425.5s201 -160.5 343 -160.5
c140 0 250.833 34.333 332.5 103s122.5 172 122.5 310h46z" />
    <glyph glyph-name="D" unicode="D" horiz-adv-x="1340" 
d="M200 0v1456h403c167.333 0 309.333 -60 426 -180s175 -273 175 -459v-178c0 -186.667 -58.333 -339.834 -175 -459.501s-258.667 -179.5 -426 -179.5h-403zM254 1402v-1348h349c151.333 0 280.333 55.333 387 166s160 250.334 160 419.001v181
c0 166.667 -53.333 305.334 -160 416.001s-235.667 166 -387 166h-349z" />
    <glyph glyph-name="E" unicode="E" horiz-adv-x="1166" 
d="M984 732h-730v-678h832v-54h-886v1456h886v-54h-832v-616h730v-54z" />
    <glyph glyph-name="F" unicode="F" horiz-adv-x="1172" 
d="M1000 716h-746v-716h-54v1456h902v-54h-848v-630h746v-56z" />
    <glyph glyph-name="G" unicode="G" horiz-adv-x="1406" 
d="M1226 156c-30.667 -42.667 -89.4971 -82.833 -176.497 -120.5s-193.833 -56.5 -320.5 -56.5c-166.667 0 -301.834 59.333 -405.501 178s-155.5 273 -155.5 463v238c0 182.667 50.333 331.5 151 446.5s231.667 172.5 393 172.5c154 0 276.167 -39.833 366.5 -119.5
s136.5 -182.5 138.5 -308.5l-2 -6h-45c-5.33301 112.667 -46.833 204.167 -124.5 274.5s-188.834 105.5 -333.501 105.5c-147.333 0 -265.833 -52.5 -355.5 -157.5s-134.5 -240.167 -134.5 -405.5v-240c0 -173.333 46.333 -314.5 139 -423.5s215.334 -163.5 368.001 -163.5
c107.333 0 201.166 15.667 281.499 47s134.166 65 161.499 101v424h-445v55h499v-504z" />
    <glyph glyph-name="H" unicode="H" horiz-adv-x="1438" 
d="M1238 0h-54v695h-930v-695h-54v1456h54v-707h930v707h54v-1456z" />
    <glyph glyph-name="I" unicode="I" horiz-adv-x="534" 
d="M294 0h-54v1456h54v-1456z" />
    <glyph glyph-name="J" unicode="J" horiz-adv-x="1125" 
d="M876 1456h54.001v-1034c0 -135.333 -38.167 -243 -114.5 -323s-174.5 -120 -294.5 -120c-133.333 0 -238.333 35.333 -315 106s-113.334 174 -110.001 310l2 6h46c0 -118.667 32.333 -209.667 97 -273s158 -95 280 -95c102 0 186.667 35 254 105s101 164.667 101 284
v1034z" />
    <glyph glyph-name="K" unicode="K" horiz-adv-x="1300" 
d="M477 711h-223v-711h-54v1456h54v-692h238l618 692h64l2 -5l-639 -721l685 -724l-3 -6h-63z" />
    <glyph glyph-name="L" unicode="L" horiz-adv-x="1057" 
d="M255 54h747v-54h-802v1456h55v-1402z" />
    <glyph glyph-name="M" unicode="M" horiz-adv-x="1756" 
d="M277 1456l596 -1370h6l598 1370h79v-1456h-54v1361l-6 2l-598 -1363h-43l-595 1356l-6 -2v-1354h-54v1456h77z" />
    <glyph glyph-name="N" unicode="N" horiz-adv-x="1449" 
d="M1249 0h-54l-934 1356l-6 -2v-1354h-55v1456h55l934 -1353l6 2v1351h54v-1456z" />
    <glyph glyph-name="O" unicode="O" horiz-adv-x="1364" 
d="M1231 619c0 -196.667 -48.667 -352.5 -146 -467.5s-231.333 -172.5 -402 -172.5c-171.333 0 -305.833 57.5 -403.5 172.5s-146.5 270.833 -146.5 467.5v218c0 196 48.5 351.667 145.5 467s231.167 173 402.5 173c170.667 0 305 -57.667 403 -173s147 -271 147 -467v-218z
M1177 839c0 178.667 -43.001 320.667 -129.001 426s-208.333 158 -367 158c-158 0 -279.667 -52.667 -365 -158s-128 -247.333 -128 -426v-220c0 -180 42.833 -322.667 128.5 -428s207.834 -158 366.501 -158s280.667 52.5 366 157.5s128 247.833 128 428.5v220z" />
    <glyph glyph-name="P" unicode="P" horiz-adv-x="1230" 
d="M254 625v-625h-54v1456h455c150.667 0 266.667 -37.833 348 -113.5s122 -176.167 122 -301.5c0 -126.667 -40.5 -227.667 -121.5 -303s-197.167 -113 -348.5 -113h-401zM254 679h401c138 0 241.833 34.333 311.5 103s104.5 154.334 104.5 257.001
c0 105.333 -34.667 192.166 -104 260.499s-173.333 102.5 -312 102.5h-401v-723z" />
    <glyph glyph-name="Q" unicode="Q" horiz-adv-x="1364" 
d="M1231 619c0 -121.333 -19.168 -228.167 -57.501 -320.5s-93.166 -165.166 -164.499 -218.499l254 -248l-39 -35l-262 251c-39.333 -22.667 -82.5 -39.834 -129.5 -51.501s-96.833 -17.5 -149.5 -17.5c-171.333 0 -305.833 57.5 -403.5 172.5s-146.5 270.833 -146.5 467.5
v218c0 196 48.5 351.667 145.5 467s231.167 173 402.5 173c170.667 0 305 -57.667 403 -173s147 -271 147 -467v-218zM1177 838.999c0 178.667 -43.001 320.667 -129.001 426s-208.333 158 -367 158c-158 0 -279.667 -52.667 -365 -158s-128 -247.333 -128 -426v-220
c0 -180 42.833 -322.667 128.5 -428s207.834 -158 366.501 -158s280.667 52.5 366 157.5s128 247.833 128 428.5v220z" />
    <glyph glyph-name="R" unicode="R" horiz-adv-x="1340" 
d="M249 683v-684h-54v1456h464c153.333 0 271.333 -33.167 354 -99.5s124 -163.166 124 -290.499c0 -82 -26.167 -156.5 -78.5 -223.5s-123.833 -110.5 -214.5 -130.5c104.667 -18 179.667 -56.333 225 -115s68 -133.667 68 -225v-137c0 -45.333 5.5 -86 16.5 -122
s29.167 -65.333 54.5 -88v-25h-53c-24 27.333 -42 61.166 -54 101.499s-18 85.5 -18 135.5v133c0 98.667 -33.833 175.667 -101.5 231s-164.167 83 -289.5 83h-443zM249 737l400 -0.000976562c148.667 0 258.167 31.333 328.5 94s105.5 140.667 105.5 234
c0 108.667 -35.5 191.834 -106.5 249.501s-176.833 86.5 -317.5 86.5h-410v-664z" />
    <glyph glyph-name="S" unicode="S" horiz-adv-x="1223" 
d="M1074 349c0 91.333 -33.5 164.334 -100.5 219.001s-183.167 104.667 -348.5 150c-166 44.667 -287.5 95.5 -364.5 152.5s-115.5 140.167 -115.5 249.5c0 108.667 45.333 195.334 136 260.001s206.334 97 347.001 97c142 0 258 -39.667 348 -119
s133.667 -181.333 131 -306l-2 -6h-46c0 108.667 -40 198.667 -120 270s-183.667 107 -311 107c-132 0 -236.5 -29.5 -313.5 -88.5s-115.5 -129.833 -115.5 -212.5s31.833 -151.334 95.5 -206.001s178.834 -103.334 345.501 -146.001
c161.333 -42.667 283.166 -94.834 365.499 -156.501s123.5 -149.167 123.5 -262.5c0 -115.333 -47 -206.166 -141 -272.499s-211.667 -99.5 -353 -99.5c-146 0 -271.667 34.167 -377 102.5s-156.333 175.833 -153 322.5l2 6h45c0 -132 48.667 -227.833 146 -287.5
s209.666 -89.5 336.999 -89.5c128 0 233.167 29.333 315.5 88s123.5 134.667 123.5 228z" />
    <glyph glyph-name="T" unicode="T" horiz-adv-x="1224" 
d="M1169 1402h-530v-1402h-54v1402h-530v54h1114v-54z" />
    <glyph glyph-name="U" unicode="U" horiz-adv-x="1365" 
d="M1180 1456v-987c0 -158.667 -46 -280 -138 -364s-211.667 -126 -359 -126c-148.667 0 -268.834 42.167 -360.501 126.5s-137.5 205.5 -137.5 363.5v987h54v-987c0 -136.667 41.333 -243.5 124 -320.5s189.334 -115.5 320.001 -115.5c130 0 236.333 38.5 319 115.5
s124 183.833 124 320.5v987h54z" />
    <glyph glyph-name="V" unicode="V" horiz-adv-x="1223" 
d="M583 142l26 -79h6l26 79l489 1314h59l-544 -1456h-66l-544 1456h59z" />
    <glyph glyph-name="W" unicode="W" horiz-adv-x="1855" 
d="M423 330l63 -229h6l63 229l344 1126h60l342 -1126l62 -229h6l65 229l300 1126h59l-392 -1456h-61l-361 1214l-48 145h-6l-46 -145l-364 -1214h-61l-393 1456h60z" />
    <glyph glyph-name="X" unicode="X" horiz-adv-x="1223" 
d="M610 785l471 671h67l-503 -713l524 -743h-67l-492 701l-491 -701h-66l524 743l-504 713h68z" />
    <glyph glyph-name="Y" unicode="Y" horiz-adv-x="1223" 
d="M583 647l26 -50l27 50l483 809h66l-547 -903v-553h-55v553l-547 903h66z" />
    <glyph glyph-name="Z" unicode="Z" horiz-adv-x="1224" 
d="M168 54h962v-54h-1036v44l929 1359h-889v53h964v-38z" />
    <glyph glyph-name="bracketleft" unicode="[" horiz-adv-x="439" 
d="M464 1610h-229v-1868h229v-54h-283v1976h283v-54z" />
    <glyph glyph-name="backslash" unicode="\" horiz-adv-x="774" 
d="M57 1456h58l608 -1581h-58z" />
    <glyph glyph-name="bracketright" unicode="]" horiz-adv-x="439" 
d="M-8 1664h283v-1976h-283v54h228v1868h-228v54z" />
    <glyph glyph-name="asciicircum" unicode="^" horiz-adv-x="849" 
d="M150 729h-59l299 727h52l299 -727h-61l-222 543l-40 114h-6l-43 -114z" />
    <glyph glyph-name="underscore" unicode="_" horiz-adv-x="845" 
d="M845 -54h-846v54h846v-54z" />
    <glyph glyph-name="grave" unicode="`" horiz-adv-x="537" 
d="M414 1215l-2 -5h-75l-234 261l2 5h89z" />
    <glyph glyph-name="a" unicode="a" horiz-adv-x="1081" 
d="M851 200c-37.333 -65.333 -93 -118.499 -167 -159.499s-163.667 -61.5 -269 -61.5c-100.667 0 -179.667 27.5 -237 82.5s-86 129.167 -86 222.5c0 90.667 42.833 166.667 128.5 228s192.834 92 321.501 92h309v158c0 90 -28.833 160.167 -86.5 210.5
s-138.834 75.5 -243.501 75.5c-98 0 -176.833 -23.667 -236.5 -71s-89.5 -108.333 -89.5 -183l-45 2l-2 5c-4 84 28.667 155.167 98 213.5s161 87.5 275 87.5c116 0 209 -29.333 279 -88s105 -143.334 105 -254.001v-542c0 -38 2.16699 -75 6.5 -111s11.5 -71.667 21.5 -107
h-60c-8.66699 47.333 -14.5 82.833 -17.5 106.5s-4.5 49.167 -4.5 76.5v17zM415 32.001c107.333 0 198.167 23.667 272.5 71s128.833 115 163.5 203v243h-306c-112 0 -206.5 -25.833 -283.5 -77.5s-115.5 -115.5 -115.5 -191.5c0 -72.667 24.5 -132.167 73.5 -178.5
s114.167 -69.5 195.5 -69.5z" />
    <glyph glyph-name="b" unicode="b" 
d="M999 521c0 -166.667 -36.001 -298.667 -108.001 -396s-171.333 -146 -298 -146c-85.333 0 -159.666 17.167 -222.999 51.5s-112.666 80.833 -147.999 139.5l-7 -170h-45v1560h54v-671c36 66 85 118 147 156s135.333 57 220 57c127.333 0 227.166 -50.5 299.499 -151.5
s108.5 -237.167 108.5 -408.5v-21zM942.999 542c0 150 -30.002 271.834 -90.002 365.501s-147 140.5 -261 140.5c-104.667 0 -186 -26.333 -244 -79s-99.333 -117.334 -124 -194.001v-507c26.667 -71.333 71.334 -128.333 134.001 -171s141.334 -64 236.001 -64
c114 0 200.667 44 260 132s89 206.667 89 356v21z" />
    <glyph glyph-name="c" unicode="c" horiz-adv-x="1039" 
d="M539 33c91.333 0 171.998 25.002 241.998 75.002s105 125 105 225h46l2 -6c2.66699 -106 -36.166 -190.5 -116.499 -253.5s-173.166 -94.5 -278.499 -94.5c-138 0 -246.167 49.667 -324.5 149s-117.5 230 -117.5 392v42c0 161.333 39 291.666 117 390.999
s185.667 149 323 149c112 0 206.833 -32.833 284.5 -98.5s115.167 -158.167 112.5 -277.5l-2 -6h-46c0 106 -34 187.167 -102 243.5s-150.333 84.5 -247 84.5c-126.667 0 -222.667 -45.333 -288 -136s-98 -207.334 -98 -350.001v-42c0 -144 32.667 -261.167 98 -351.5
s162 -135.5 290 -135.5z" />
    <glyph glyph-name="d" unicode="d" 
d="M122 542c0 171.333 35.998 307.5 107.998 408.5s172 151.5 300 151.5c84.667 0 157.834 -19 219.501 -57s110.834 -90 147.501 -156v671h54v-1560h-52l-2 168c-36 -58 -85.5 -104 -148.5 -138s-136.5 -51 -220.5 -51c-127.333 0 -226.833 48.667 -298.5 146
s-107.5 229.333 -107.5 396v21zM177.998 521c0 -149.333 29.501 -267.999 88.501 -355.999s145.833 -132 260.5 -132c94 0 172.167 21.333 234.5 64s107.5 99.667 135.5 171v507c-26 77.333 -68 142.166 -126 194.499s-138.667 78.5 -242 78.5
c-114.667 0 -201.834 -46.833 -261.501 -140.5s-89.5 -215.5 -89.5 -365.5v-21z" />
    <glyph glyph-name="e" unicode="e" horiz-adv-x="1032" 
d="M541 -21c-123.333 0 -229.833 49.832 -319.5 149.499s-134.5 223.5 -134.5 371.5v64c0 155.333 43.333 283.833 130 385.5s193.667 152.5 321 152.5c122 0 221.5 -40 298.5 -120s115.5 -187.333 115.5 -322v-83h-811v-13v-64c0 -130.667 38.333 -241.167 115 -331.5
s171.667 -135.5 285 -135.5c80.667 0 148.167 11 202.5 33s100.833 55 139.5 99l29 -42c-42.667 -47.333 -94.5 -83.166 -155.5 -107.499s-132.833 -36.5 -215.5 -36.5zM538 1048c-107.333 0 -196.667 -39.168 -268 -117.501s-111.666 -176.166 -120.999 -293.499l3 -6h746
v33c0 110 -33.333 201.5 -100 274.5s-153.334 109.5 -260.001 109.5z" />
    <glyph glyph-name="f" unicode="f" horiz-adv-x="645" 
d="M254 0l-0.00195312 1027h-188v55h188v178c0 102 24.833 181 74.5 237s119.167 84 208.5 84c22 0 43.833 -1.33301 65.5 -4s42.5 -7 62.5 -13l-8 -52c-21.333 5.33301 -40.166 9.16602 -56.499 11.499s-37.166 3.5 -62.499 3.5c-72 0 -128.333 -23.667 -169 -71
s-61 -112.666 -61 -195.999v-178h286v-55h-286v-1027h-54z" />
    <glyph glyph-name="g" unicode="g" 
d="M121 542c0 171.333 36.001 307.499 108.001 408.499s172 151.5 300 151.5c84 0 157 -19 219 -57s111.333 -90.333 148 -157l8 194h46v-1088c0 -137.333 -36.167 -243.5 -108.5 -318.5s-172.5 -112.5 -300.5 -112.5c-52.667 0 -107.5 5.5 -164.5 16.5
s-106.833 26.167 -149.5 45.5l16 54c48.667 -21.333 95.667 -37.166 141 -47.499s97 -15.5 155 -15.5c116.667 0 205.167 32.5 265.5 97.5s90.5 158.5 90.5 280.5v172c-36.667 -57.333 -86.334 -102.833 -149.001 -136.5s-135.667 -50.5 -219 -50.5
c-127.333 0 -226.833 48.667 -298.5 146s-107.5 229.333 -107.5 396v21zM176.001 520.999c0 -149.333 29.6689 -268.001 89.002 -356.001s146.333 -132 261 -132c94 0 172 21.167 234 63.5s107 98.833 135 169.5v512c-26.667 76.667 -68.834 140.834 -126.501 192.501
s-137.834 77.5 -240.501 77.5c-114.667 0 -202 -46.833 -262 -140.5s-90 -215.5 -90 -365.5v-21z" />
    <glyph glyph-name="h" unicode="h" 
d="M226 854c33.333 78.667 82.332 139.667 146.999 183s143.667 65 237 65c112.667 0 198.167 -35.667 256.5 -107s87.5 -183.666 87.5 -336.999v-658h-55v660c0 142 -26.167 242.167 -78.5 300.5s-122.166 87.5 -209.499 87.5c-116.667 0 -206 -34.833 -268 -104.5
s-101 -158.834 -117 -267.501v-676h-54v1560h54v-706z" />
    <glyph glyph-name="i" unicode="i" horiz-adv-x="422" 
d="M239 0h-54v1082h54v-1082zM239 1422h-54v138h54v-138z" />
    <glyph glyph-name="j" unicode="j" horiz-adv-x="445" 
d="M240 1082v-1171c0 -111.333 -25 -197.166 -75 -257.499s-120 -90.5 -210 -90.5c-19.333 0 -37.666 1.66699 -54.999 5s-36.333 8.33301 -57 15l13 52c12.667 -4 28.167 -8 46.5 -12s35.833 -6 52.5 -6c73.333 0 130.166 25.667 170.499 77s60.5 123.666 60.5 216.999
v1171h54zM234 1426h-54v134h54v-134z" />
    <glyph glyph-name="k" unicode="k" horiz-adv-x="969" 
d="M374 553h-148v-553h-54v1560h54v-953h127l492 475h63l2 -6l-496 -487l534 -584l-2 -5h-63z" />
    <glyph glyph-name="l" unicode="l" horiz-adv-x="422" 
d="M239 0h-54v1560h54v-1560z" />
    <glyph glyph-name="m" unicode="m" horiz-adv-x="1836" 
d="M208 1082l7.00293 -223c32.667 76.667 79.667 136.334 141 179.001s136 64 224 64c93.333 0 169.166 -23.833 227.499 -71.5s98.5 -121.167 120.5 -220.5c28.667 92 75.5 163.833 140.5 215.5s146.167 77.5 243.5 77.5c119.333 0 210 -39 272 -117s93 -200.667 93 -368
v-617h-55v619c0 156.667 -28 267.334 -84 332.001s-130.667 97 -224 97c-114.667 0 -201.334 -34.5 -260.001 -103.5s-95.334 -158.167 -110.001 -267.5c0 -13.333 0.333008 -24.833 1 -34.5s1 -19.167 1 -28.5v-615h-55v619c0 157.333 -28 268.166 -84 332.499
s-131 96.5 -225 96.5c-112 0 -197 -32.833 -255 -98.5s-95 -150.834 -111 -255.501v-694h-55v1082h47z" />
    <glyph glyph-name="n" unicode="n" 
d="M218 1082l6.99902 -222.999c32.667 77.333 80.334 137.166 143.001 179.499s140 63.5 232 63.5c118 0 206.5 -37.167 265.5 -111.5s88.5 -192.166 88.5 -353.499v-637h-54v639c0 150 -26.833 255.667 -80.5 317s-126.5 92 -218.5 92
c-116.667 0 -204.667 -34.833 -264 -104.5s-96.333 -158.834 -111 -267.501v-676h-54v1082h46z" />
    <glyph glyph-name="o" unicode="o" 
d="M87 562c0 158.667 43.832 288.334 131.499 389.001s201.5 151 341.5 151c140.667 0 254.834 -50.333 342.501 -151s131.5 -230.334 131.5 -389.001v-42c0 -159.333 -43.833 -289.333 -131.5 -390s-201.167 -151 -340.5 -151c-140.667 0 -255 50.333 -343 151
s-132 230.667 -132 390v42zM140.999 520c0 -136 38.001 -251.167 114.001 -345.5s178.333 -141.5 307 -141.5c126.667 0 228 47.333 304 142s114 209.667 114 345v42c0 132.667 -38.333 246.834 -115 342.501s-178.334 143.5 -305.001 143.5
c-127.333 0 -229 -47.833 -305 -143.5s-114 -209.834 -114 -342.501v-42z" />
    <glyph glyph-name="p" unicode="p" 
d="M999 521c0 -166.667 -35.999 -298.667 -107.999 -396s-171.333 -146 -298 -146c-84.667 0 -158.5 17 -221.5 51s-112.167 80 -147.5 138v-584h-54v1498h42l11 -194c36 66.667 85 119 147 157s135.667 57 221 57c127.333 0 227.166 -50.5 299.499 -151.5
s108.5 -237.167 108.5 -408.5v-21zM944.001 542c0 150 -30.1689 271.834 -90.502 365.501s-147.5 140.5 -261.5 140.5c-104.667 0 -186 -26.333 -244 -79s-99.333 -117.334 -124 -194.001v-506c26.667 -72 71.334 -129.333 134.001 -172s141.334 -64 236.001 -64
c114 0 200.833 44 260.5 132s89.5 206.667 89.5 356v21z" />
    <glyph glyph-name="q" unicode="q" 
d="M122 542c0 171.333 35.999 307.5 107.999 408.5s172 151.5 300 151.5c84.667 0 157.834 -19 219.501 -57s110.834 -90.333 147.501 -157l5 194h49v-1498h-54v584c-36.667 -58 -86.334 -104 -149.001 -138s-136 -51 -220 -51c-127.333 0 -226.833 48.667 -298.5 146
s-107.5 229.333 -107.5 396v21zM177.999 521c0 -149.333 29.501 -267.999 88.501 -355.999s145.833 -132 260.5 -132c94 0 172.167 21.333 234.5 64s107.5 99.667 135.5 171v507c-26 77.333 -68 142.166 -126 194.499s-138.667 78.5 -242 78.5
c-114.667 0 -201.834 -46.833 -261.501 -140.5s-89.5 -215.5 -89.5 -365.5v-21z" />
    <glyph glyph-name="r" unicode="r" horiz-adv-x="680" 
d="M649 1043l-70 6c-96.667 0 -175.167 -31.167 -235.5 -93.5s-99.5 -144.5 -117.5 -246.5v-709h-54v1082h44l10 -188v-37c30 77.333 74.667 137.5 134 180.5s132.333 64.5 219 64.5c15.333 0 29.5 -1.16699 42.5 -3.5s24.167 -4.83301 33.5 -7.5z" />
    <glyph glyph-name="s" unicode="s" horiz-adv-x="1019" 
d="M835 265c0 57.333 -24.5 109.501 -73.5 156.501s-134.5 83.833 -256.5 110.5c-128.667 27.333 -221.834 62.5 -279.501 105.5s-86.5 106.833 -86.5 191.5c0 77.333 32.667 142.166 98 194.499s153.333 78.5 264 78.5c119.333 0 213.333 -28 282 -84
s101.334 -129 98.001 -219l-2 -6h-46c0 70.667 -29.833 130.834 -89.5 180.501s-140.5 74.5 -242.5 74.5c-101.333 0 -178 -21.833 -230 -65.5s-78 -94.167 -78 -151.5c0 -56.667 22 -105 66 -145s131.333 -75 262 -105c120.667 -28 212.167 -66.167 274.5 -114.5
s93.5 -115.833 93.5 -202.5c0 -84.667 -34.667 -153.334 -104 -206.001s-161.333 -79 -276 -79c-126 0 -224.833 28.167 -296.5 84.5s-105.167 124.833 -100.5 205.5l2 6h44c5.33301 -85.333 42 -147 110 -185s148.333 -57 241 -57c100 0 179.333 23.333 238 70
s88 100.667 88 162z" />
    <glyph glyph-name="t" unicode="t" horiz-adv-x="633" 
d="M284 1374l0.000976562 -291.997h266v-55h-266v-748c0 -88.667 15 -151.834 45 -189.501s69.667 -56.5 119 -56.5c18 0 34 0.666992 48 2s33.333 3.66602 58 6.99902l10 -49c-16.667 -5.33301 -34 -9 -52 -11s-38.333 -3 -61 -3c-72.667 0 -127.834 23.667 -165.501 71
s-56.5 123.666 -56.5 228.999v748h-200v55h200v292h55z" />
    <glyph glyph-name="u" unicode="u" 
d="M899 194c-34 -68.667 -82.5 -121.666 -145.5 -158.999s-139.5 -56 -229.5 -56c-111.333 0 -198.5 39.5 -261.5 118.5s-94.5 201.5 -94.5 367.5v617h54v-619c0 -146.667 27 -255 81 -325s127 -105 219 -105c112.667 0 199.167 27.667 259.5 83
s98.833 128.666 115.5 219.999v746h55v-1082h-45z" />
    <glyph glyph-name="v" unicode="v" horiz-adv-x="978" 
d="M435 229l51 -146h6l52 146l333 853h58l-421 -1081l1 -1h-52l-420 1082h58z" />
    <glyph glyph-name="w" unicode="w" horiz-adv-x="1550" 
d="M366 313l56 -222l6 -1l71 223l243 769h55l242 -769l70 -223l6 1l58 222l220 769h63l-315 -1082h-54l-267 813l-48 183h-6l-52 -183l-263 -813h-54l-314 1082h62z" />
    <glyph glyph-name="x" unicode="x" horiz-adv-x="978" 
d="M489 602l345 480h68l-380 -527l400 -555h-67l-367 508l-366 -508h-67l400 555l-380 527h68z" />
    <glyph glyph-name="y" unicode="y" horiz-adv-x="978" 
d="M458 196l40 -108h6l6 16l374 978h60l-481 -1262c-29.333 -76 -63.5 -137.833 -102.5 -185.5s-101.167 -71.5 -186.5 -71.5c-12.667 0 -26.667 1.16699 -42 3.5s-26.666 4.83301 -33.999 7.5l9 51c7.33301 -2 18.333 -4 33 -6s26 -3 34 -3c61.333 0 109.166 18 143.499 54
s64.833 89.333 91.5 160l65 176l-431 1076h59z" />
    <glyph glyph-name="z" unicode="z" horiz-adv-x="978" 
d="M160 54h770v-54h-843v44l711 983h-680v55h753v-48z" />
    <glyph glyph-name="braceleft" unicode="{" horiz-adv-x="660" 
d="M642 -441c-115.333 36.667 -197.333 94.333 -246 173s-73 174.667 -73 288v245c0 88 -20.333 156.333 -61 205s-103.667 73 -189 73v66c85.333 0 148.333 24 189 72s61 116 61 204v247c0 114 24.333 210.833 73 290.5s130.667 137.834 246 174.501l15 -45
c-95.333 -30.667 -165.833 -82.5 -211.5 -155.5s-68.5 -161.167 -68.5 -264.5v-247c0 -80 -17.333 -147.333 -52 -202s-87.667 -90.334 -159 -107.001c71.333 -17.333 124.333 -53.666 159 -108.999s52 -122.666 52 -201.999v-245c0 -102.667 23.5 -189.334 70.5 -260.001
s118.5 -122.334 214.5 -155.001z" />
    <glyph glyph-name="bar" unicode="|" horiz-adv-x="406" 
d="M235 -270h-54v1726h54v-1726z" />
    <glyph glyph-name="braceright" unicode="}" horiz-adv-x="660" 
d="M0 -395c95.333 32.667 166.501 84.334 213.501 155.001s70.5 157.334 70.5 260.001v245c0 79.333 17.167 146.666 51.5 201.999s87.5 91.666 159.5 108.999c-72 16.667 -125.167 52.334 -159.5 107.001s-51.5 122 -51.5 202v247c0 103.333 -22.833 191.5 -68.5 264.5
s-115.834 124.833 -210.501 155.5l14 45c114.667 -36.667 196.5 -94.834 245.5 -174.501s73.5 -176.5 73.5 -290.5v-247c0 -88 20.333 -156 61 -204s103.667 -72 189 -72v-66c-85.333 0 -148.333 -24.5 -189 -73.5s-61 -117.167 -61 -204.5v-245
c0 -114 -24.333 -210.167 -73 -288.5s-130.667 -135.833 -246 -172.5z" />
    <glyph glyph-name="asciitilde" unicode="~" horiz-adv-x="1412" 
d="M1251 740c0 -80.667 -25.165 -150.332 -75.498 -208.999s-113.166 -88 -188.499 -88c-58 0 -110.833 12.667 -158.5 38s-101.834 65.666 -162.501 120.999c-45.333 39.333 -87.833 68.833 -127.5 88.5s-79.834 29.5 -120.501 29.5c-59.333 0 -108 -22.667 -146 -68
s-57 -108.666 -57 -189.999l-59 12c0 85.333 24.5 156.666 73.5 213.999s111.833 86 188.5 86c57.333 0 110.166 -13.167 158.499 -39.5s103.166 -66.5 164.499 -120.5c44.667 -41.333 86.334 -71.333 125.001 -90s79 -28 121 -28c57.333 0 105.5 23.5 144.5 70.5
s58.5 109.167 58.5 186.5z" />
    <glyph glyph-name="nonbreakingspace" unicode="&#xa0;" horiz-adv-x="490" 
 />
    <glyph glyph-name="exclamdown" unicode="&#xa1;" horiz-adv-x="406" 
d="M221 -374h-54v978h54v-978zM242 918h-95v164h95v-164z" />
    <glyph glyph-name="cent" unicode="&#xa2;" horiz-adv-x="1110" 
d="M576 33c91.333 0 171.999 25.001 241.999 75.001s105 125 105 225h46l2 -6c2.66699 -101.333 -32.666 -183 -105.999 -245s-160.333 -96 -261 -102v-225h-55v225c-130.667 7.33301 -232.5 60 -305.5 158s-109.5 225.333 -109.5 382v42c0 156 36.667 283.167 110 381.5
s175 150.833 305 157.5v217h55v-217c105.333 -6.66699 193.5 -42.5 264.5 -107.5s105.5 -154.167 103.5 -267.5l-3 -6h-46c0 106 -34 187.167 -102 243.5s-150.333 84.5 -247 84.5c-126.667 0 -222.667 -45.333 -288 -136s-98 -207.334 -98 -350.001v-42
c0 -144 32.667 -261.167 98 -351.5s162 -135.5 290 -135.5z" />
    <glyph glyph-name="sterling" unicode="&#xa3;" horiz-adv-x="1150" 
d="M362 667l8.00098 -200.998c0 -83.333 -12 -161.833 -36 -235.5s-58 -132.5 -102 -176.5h808l1 -54h-912v54h10c59.333 10.667 103.666 59.167 132.999 145.5s44 175.166 44 266.499l-8 201h-243v54h241l-11 319c0 136 33.667 242.833 101 320.5s157.333 116.5 270 116.5
c116.667 0 202 -34 256 -102s80 -161.333 78 -280l-2 -5h-47c0 117.333 -24.5 202.166 -73.5 254.499s-119.5 78.5 -211.5 78.5c-98 0 -175.333 -33.333 -232 -100s-85 -161 -85 -283l11 -319h478v-54h-476z" />
    <glyph glyph-name="currency" unicode="&#xa4;" horiz-adv-x="1502" 
d="M1159 156c-54.667 -56 -117.499 -99.3301 -188.499 -129.997s-146.167 -46 -225.5 -46c-80 0 -155.5 15.167 -226.5 45.5s-133.833 73.166 -188.5 128.499l-176 -180l-40 39l179 182c-46 56 -81.5 119.167 -106.5 189.5s-37.5 144.833 -37.5 223.5
c0 81.333 13.333 158.166 40 230.499s64.667 136.833 114 193.5l-189 193l40 39l188 -192c53.333 51.333 114.5 91.166 183.5 119.499s142.167 42.5 219.5 42.5c76 0 148.5 -14.333 217.5 -43s130.833 -69 185.5 -121l191 195l41 -40l-193 -196
c48 -56.667 85.333 -121 112 -193s40 -148 40 -228c0 -78 -12.333 -151.833 -37 -221.5s-59.334 -132.167 -104.001 -187.5l182 -186l-41 -40zM204.001 608.003c0 -158.667 53 -294.167 159 -406.5s233.333 -168.5 382 -168.5c147.333 0 274.166 56.167 380.499 168.5
s159.5 247.833 159.5 406.5c0 158 -53.167 293 -159.5 405s-233.166 168 -380.499 168c-148.667 0 -276 -56 -382 -168s-159 -247 -159 -405z" />
    <glyph glyph-name="yen" unicode="&#xa5;" horiz-adv-x="1207" 
d="M1079 1456h66l-489 -780h424v-55h-452v-240h452v-55h-452v-326h-54v326h-450v55h450v240h-450v55h421l-487 780h65l452 -718l24 -51h5l24 51z" />
    <glyph glyph-name="brokenbar" unicode="&#xa6;" horiz-adv-x="398" 
d="M172 -270v752h54v-752h-54zM226 698h-54v758h54v-758z" />
    <glyph glyph-name="section" unicode="&#xa7;" horiz-adv-x="1223" 
d="M1094 431c0 -70 -27.334 -128.666 -82.001 -175.999s-128.667 -77.666 -222 -90.999c87.333 -33.333 152.5 -74 195.5 -122s64.5 -111.667 64.5 -191c0 -107.333 -40.667 -191.833 -122 -253.5s-190.666 -92.5 -327.999 -92.5c-136.667 0 -251.5 34.167 -344.5 102.5
s-137.833 176.166 -134.5 323.499l2 5l46 2c0 -132.667 42.333 -229 127 -289s186 -90 304 -90c123.333 0 220 26.833 290 80.5s105 123.5 105 209.5c0 80 -26.833 142.833 -80.5 188.5s-156.167 88.5 -307.5 128.5c-163.333 38.667 -285.166 86.167 -365.499 142.5
s-120.5 137.166 -120.5 242.499c0 72 25.333 131.667 76 179s121 78 211 92c-81.333 32 -142 72.167 -182 120.5s-60 110.833 -60 187.5c0 104.667 41 188.667 123 252s191.667 95 329 95c142.667 0 253.667 -37.167 333 -111.5s117.666 -178.833 114.999 -313.5l-2 -6h-46
c0 108 -35.5 197.833 -106.5 269.5s-168.833 107.5 -293.5 107.5c-131.333 0 -230.5 -27.167 -297.5 -81.5s-100.5 -123.833 -100.5 -208.5c0 -84 26.5 -148.667 79.5 -194s158.5 -90.333 316.5 -135c168 -42.667 289.667 -89.5 365 -140.5s113 -128.5 113 -232.5z
M589.999 766.001c-20 4 -38.999 8.50195 -56.999 13.502s-35 10.5 -51 16.5c-101.333 -4.66699 -177.833 -29.334 -229.5 -74.001s-77.5 -101 -77.5 -169c0 -86.667 29.333 -151.834 88 -195.501s179 -91.167 361 -142.5l69 -19c107.333 0.666992 192 23 254 67
s93 99 93 165c0 82 -31.833 146.833 -95.5 194.5s-181.834 95.5 -354.501 143.5z" />
    <glyph glyph-name="dieresis" unicode="&#xa8;" horiz-adv-x="906" 
d="M761 1338h-136v118h136v-118zM292 1338h-137v118h137v-118z" />
    <glyph glyph-name="copyright" unicode="&#xa9;" horiz-adv-x="1666" 
d="M1116 596l2.99902 -6.00098c2 -100 -23.167 -176.333 -75.5 -229s-124.833 -79 -217.5 -79c-96 0 -173.333 35.667 -232 107s-88 164.666 -88 279.999v119c0 114.667 29.5 207.834 88.5 279.501s136.167 107.5 231.5 107.5c92.667 0 165.334 -26.5 218.001 -79.5
s78 -128.833 76 -227.5l-3 -6h-44c0 86 -21.333 150.833 -64 194.5s-103.667 65.5 -183 65.5c-82 0 -146.667 -31.667 -194 -95s-71 -142.666 -71 -237.999v-120c0 -96.667 23.5 -176.167 70.5 -238.5s111.833 -93.5 194.5 -93.5c80 0 141 21.167 183 63.5
s63 107.5 63 195.5h44zM178.999 728.999c0 -193.333 63.834 -357.5 191.501 -492.5s281.834 -202.5 462.501 -202.5c179.333 0 333.166 67.5 461.499 202.5s192.5 299.167 192.5 492.5c0 192.667 -64 356.167 -192 490.5s-282 201.5 -462 201.5
c-180.667 0 -334.834 -67.167 -462.501 -201.5s-191.5 -297.833 -191.5 -490.5zM123 728.999c0 210 69 387 207 531s305.667 216 503 216c196.667 0 364.167 -72 502.5 -216s207.5 -321 207.5 -531c0 -210.667 -69.167 -388.334 -207.5 -533.001s-305.833 -217 -502.5 -217
s-364.167 72.333 -502.5 217s-207.5 322.334 -207.5 533.001z" />
    <glyph glyph-name="ordfeminine" unicode="&#xaa;" horiz-adv-x="898" 
d="M680 706c-6.66699 18.667 -11.833 38.1689 -15.5 58.502s-5.83398 40.833 -6.50098 61.5c-26.667 -38.667 -62.167 -70.667 -106.5 -96s-95.833 -38 -154.5 -38c-79.333 0 -140.666 20.333 -183.999 61s-65 96.334 -65 167.001c0 67.333 24.667 119.666 74 156.999
s121 56 215 56h220v69c0 70 -17 124.333 -51 163s-83.333 58 -148 58c-76 0 -134.5 -15.667 -175.5 -47s-61.5 -77.333 -61.5 -138l-46 5l-2 6c-3.33301 65.333 21.5 119.666 74.5 162.999s123.167 65 210.5 65c76.667 0 138.167 -23.833 184.5 -71.5
s69.5 -115.834 69.5 -204.501v-314c0 -32 2 -62.833 6 -92.5s10.667 -59.167 20 -88.5h-58zM398.001 747.002c58 0 112.333 15.8311 163 47.498s82.667 66.834 96 105.501v177h-219c-75.333 0 -133.5 -14.667 -174.5 -44s-61.5 -65.666 -61.5 -108.999
c0 -56 16 -99.5 48 -130.5s81.333 -46.5 148 -46.5z" />
    <glyph glyph-name="guillemotleft" unicode="&#xab;" horiz-adv-x="905" 
d="M216 525l294 -379h-70l-295 370v19l295 370h70zM503 525l294 -379h-70l-295 370v19l295 370h70z" />
    <glyph glyph-name="logicalnot" unicode="&#xac;" horiz-adv-x="1101" 
d="M915 396h-54v304h-739v53h793v-357z" />
    <glyph glyph-name="uni00AD" unicode="&#xad;" horiz-adv-x="607" 
d="M531 599h-470v54h470v-54z" />
    <glyph glyph-name="registered" unicode="&#xae;" horiz-adv-x="1674" 
d="M115 729c0 210 69 387 207 531s305.667 216 503 216c196.667 0 364.167 -72 502.5 -216s207.5 -321 207.5 -531c0 -210.667 -69.167 -388.334 -207.5 -533.001s-305.833 -217 -502.5 -217c-197.333 0 -365 72.333 -503 217s-207 322.334 -207 533.001zM170 729
c0 -193.333 64.001 -357.5 192.001 -492.5s282.333 -202.5 463 -202.5c179.333 0 333.166 67.5 461.499 202.5s192.5 299.167 192.5 492.5c0 192.667 -64 356.167 -192 490.5s-282 201.5 -462 201.5c-180.667 0 -335 -67.167 -463 -201.5s-192 -297.833 -192 -490.5z
M648.001 688v-371.998h-55v850h239c95.333 0 167.333 -20.333 216 -61s73 -100.334 73 -179.001c0 -48.667 -13.333 -90.334 -40 -125.001s-64.334 -61.667 -113.001 -81c46.667 -14.667 80.334 -39.834 101.001 -75.501s31 -78.834 31 -129.501v-56
c0 -25.333 1.33301 -49.166 4 -71.499s7 -40.833 13 -55.5v-16h-59c-6.66699 14 -10.667 34.5 -12 61.5s-2 54.5 -2 82.5v54c0 62.667 -14 107.334 -42 134.001s-75.333 40 -142 40h-212zM648.001 744.002h204.999c60.667 0 111.334 16 152.001 48s61 77 61 135
c0 64 -17.5 110.667 -52.5 140s-95.5 44 -181.5 44h-184v-367z" />
    <glyph glyph-name="macron" unicode="&#xaf;" horiz-adv-x="811" 
d="M719 1403h-627v53h627v-53z" />
    <glyph glyph-name="macron" unicode="&#x2c9;" horiz-adv-x="811" 
d="M719 1403h-627v53h627v-53z" />
    <glyph glyph-name="degree" unicode="&#xb0;" horiz-adv-x="783" 
d="M156 1237c0 65.333 23 121.666 69 168.999s101.667 71 167 71c63.333 0 117.833 -23.667 163.5 -71s68.5 -103.666 68.5 -168.999c0 -66.667 -22.833 -122.834 -68.5 -168.501s-100.167 -68.5 -163.5 -68.5c-65.333 0 -121 22.833 -167 68.5s-69 101.834 -69 168.501z
M211 1237c0 -52.667 17.167 -96 51.5 -130s77.5 -51 129.5 -51c50.667 0 92.667 17 126 51s50 77.333 50 130c0 53.333 -16.667 97.5 -50 132.5s-75.333 52.5 -126 52.5c-52 0 -95.167 -17.667 -129.5 -53s-51.5 -79.333 -51.5 -132z" />
    <glyph glyph-name="plusminus" unicode="&#xb1;" horiz-adv-x="1077" 
d="M569 805h419v-54h-419v-462h-54v462h-443v54h443v462h54v-462zM1075 88h-835v54h835v-54z" />
    <glyph glyph-name="twosuperior" unicode="&#xb2;" horiz-adv-x="807" 
d="M665 667h-551.001v55l327 300c55.333 53.333 93.5 97 114.5 131s31.5 68 31.5 102c0 52 -16 93.167 -48 123.5s-80 45.5 -144 45.5c-69.333 0 -122.666 -17 -159.999 -51s-56 -77.667 -56 -131h-48l-3 6c-3.33301 63.333 19.667 117.666 69 162.999s115.333 68 198 68
c76.667 0 137.167 -19.167 181.5 -57.5s66.5 -94.166 66.5 -167.499c0 -46.667 -16.5 -92.167 -49.5 -136.5s-79.833 -95.833 -140.5 -154.5l-265 -235l2 -6h475v-55z" />
    <glyph glyph-name="threesuperior" unicode="&#xb3;" horiz-adv-x="831" 
d="M406 1103c71.333 0 123.833 13.499 157.5 40.499s50.5 65.833 50.5 116.5c0 48.667 -17.5 88 -52.5 118s-87.167 45 -156.5 45c-61.333 0 -112.333 -15.167 -153 -45.5s-61 -70.166 -61 -119.499h-46l-2 6c-4 62.667 19.667 114 71 154s115 60 191 60
c81.333 0 145.666 -19.167 192.999 -57.5s71 -92.833 71 -163.5c0 -40.667 -12 -77 -36 -109s-57.667 -56 -101 -72c49.333 -14 86.833 -37.167 112.5 -69.5s38.5 -73.5 38.5 -123.5c0 -71.333 -25.833 -127.166 -77.5 -167.499s-118.5 -60.5 -200.5 -60.5
c-76.667 0 -142.667 19.5 -198 58.5s-81.333 95.167 -78 168.5l2 6h48c0 -52 20.833 -94.667 62.5 -128s96.167 -50 163.5 -50c70.667 0 125.334 15.167 164.001 45.5s58 72.166 58 125.499c0 57.333 -18.5 99.333 -55.5 126s-92.167 40 -165.5 40h-114v56h114z" />
    <glyph glyph-name="acute" unicode="&#xb4;" horiz-adv-x="511" 
d="M329 1478h78l2 -5l-231 -261h-67l-2 5z" />
    <glyph glyph-name="mu" unicode="&#xb5;" 
d="M223 1082l-0.000976562 -641.998c0 -148.667 28.333 -253.667 85 -315s130.334 -92 221.001 -92c122.667 0 212 31 268 93s90 149.667 102 263v693h54v-577h2c0 -10.667 -0.166992 -20.834 -0.5 -30.501s-0.833008 -21.834 -1.5 -36.501v-438h-41l-11 205
c-32 -72.667 -78 -128.5 -138 -167.5s-135 -58.5 -225 -58.5c-68.667 0 -130.5 15 -185.5 45s-98.167 79 -129.5 147v-587h-52v1498h52z" />
    <glyph glyph-name="paragraph" unicode="&#xb6;" horiz-adv-x="946" 
d="M716 0l0.000976562 520.001h-125c-156 0 -277 43.167 -363 129.5s-129 199.166 -129 338.499c0 138 43.167 250.5 129.5 337.5s207.166 130.5 362.499 130.5h179v-1456h-54z" />
    <glyph glyph-name="periodcentered" unicode="&#xb7;" horiz-adv-x="472" 
d="M289 624h-118v152h118v-152z" />
    <glyph glyph-name="cedilla" unicode="&#xb8;" horiz-adv-x="490" 
d="M207 0l-11 -76c60.667 -4.66699 108.667 -19.834 144 -45.501s53 -66.834 53 -123.501c0 -58 -26.333 -104.167 -79 -138.5s-128 -51.5 -226 -51.5l-7 49c69.333 0 129.5 12 180.5 36s76.5 59 76.5 105c0 42.667 -15.167 72.334 -45.5 89.001
s-84.833 28.334 -163.5 35.001l25 121h53z" />
    <glyph glyph-name="onesuperior" unicode="&#xb9;" horiz-adv-x="471" 
d="M299 665h-54v747l-166 -14v56l220 23v-812z" />
    <glyph glyph-name="ordmasculine" unicode="&#xba;" horiz-adv-x="914" 
d="M148 1142c0 98.667 27.334 179.167 82.001 241.5s128.667 93.5 222 93.5s167.5 -31.167 222.5 -93.5s82.5 -142.833 82.5 -241.5v-117c0 -99.333 -27.333 -179.833 -82 -241.5s-128.334 -92.5 -221.001 -92.5c-94 0 -168.5 30.833 -223.5 92.5s-82.5 142.167 -82.5 241.5
v117zM202.001 1025c0 -83.333 20.999 -150.833 62.999 -202.5s105 -77.5 189 -77.5c80 0 141.667 26.167 185 78.5s65 119.5 65 201.5v117c0 81.333 -21.667 148.5 -65 201.5s-105.666 79.5 -186.999 79.5c-80.667 0 -142.5 -26.5 -185.5 -79.5s-64.5 -120.167 -64.5 -201.5
v-117z" />
    <glyph glyph-name="guillemotright" unicode="&#xbb;" horiz-adv-x="897" 
d="M198 940l294 -380v-19l-294 -370h-70l293 379l-293 390h70zM488 940l294 -380v-19l-294 -370h-70l293 379l-293 390h70z" />
    <glyph glyph-name="onequarter" unicode="&#xbc;" horiz-adv-x="1533" 
d="M361 664h-54v747l-166 -14v56l220 23v-812zM361 139l-45 31l711 1138l45 -31zM1257 241h176v-55h-176v-186h-55v186h-442v36l435 579h62v-560zM843 241h359v481l-6 2l-36 -60z" />
    <glyph glyph-name="onehalf" unicode="&#xbd;" horiz-adv-x="1447" 
d="M373 139l-45 31l711 1138l45 -31zM361 664h-54v747l-166 -14v56l220 23v-812zM1446 0h-551.001v55l327 300c55.333 53.333 93.5 97 114.5 131s31.5 68 31.5 102c0 52 -16 93.167 -48 123.5s-80 45.5 -144 45.5c-69.333 0 -122.666 -17 -159.999 -51s-56 -77.667 -56 -131
h-48l-3 6c-3.33301 63.333 19.667 117.666 69 162.999s115.333 68 198 68c76.667 0 137.167 -19.167 181.5 -57.5s66.5 -94.166 66.5 -167.499c0 -46.667 -16.5 -92.167 -49.5 -136.5s-79.833 -95.833 -140.5 -154.5l-265 -235l2 -6h475v-55z" />
    <glyph glyph-name="threequarters" unicode="&#xbe;" horiz-adv-x="1653" 
d="M588 139l-45 31l711 1138l45 -31zM1482 241h176v-55h-176v-186h-55v186h-442v36l435 579h62v-560zM1068 241h359v481l-6 2l-36 -60zM438 1104c71.333 0 123.833 13.499 157.5 40.499s50.5 65.833 50.5 116.5c0 48.667 -17.5 88 -52.5 118s-87.167 45 -156.5 45
c-61.333 0 -112.333 -15.167 -153 -45.5s-61 -70.166 -61 -119.499h-46l-2 6c-4 62.667 19.667 114 71 154s115 60 191 60c81.333 0 145.666 -19.167 192.999 -57.5s71 -92.833 71 -163.5c0 -40.667 -12 -77 -36 -109s-57.667 -56 -101 -72
c49.333 -14 86.833 -37.167 112.5 -69.5s38.5 -73.5 38.5 -123.5c0 -71.333 -25.833 -127.166 -77.5 -167.499s-118.5 -60.5 -200.5 -60.5c-76.667 0 -142.667 19.5 -198 58.5s-81.333 95.167 -78 168.5l2 6h48c0 -52 20.833 -94.667 62.5 -128s96.167 -50 163.5 -50
c70.667 0 125.334 15.167 164.001 45.5s58 72.166 58 125.499c0 57.333 -18.5 99.333 -55.5 126s-92.167 40 -165.5 40h-114v56h114z" />
    <glyph glyph-name="questiondown" unicode="&#xbf;" horiz-adv-x="912" 
d="M510 683c-1.33301 -78.667 -8.49805 -134.169 -21.498 -166.502s-47.5 -74.166 -103.5 -125.499c-81.333 -78 -139.5 -144.167 -174.5 -198.5s-52.5 -128.166 -52.5 -221.499c0 -97.333 25.833 -173.666 77.5 -228.999s125.5 -83 221.5 -83c94 0 167 28.167 219 84.5
s79.333 130.833 82 223.5h46l3 -6c0.666992 -113.333 -31.833 -200.833 -97.5 -262.5s-149.834 -92.5 -252.501 -92.5c-110 0 -196.333 33.667 -259 101s-94 156 -94 266c0 93.333 20.667 174 62 242s105 140.667 191 218c45.333 34.667 73.166 68.167 83.499 100.5
s15.5 82.166 15.5 149.499h54zM432.002 1083h82v-106h-82v106z" />
    <glyph glyph-name="Agrave" unicode="&#xc0;" horiz-adv-x="1223" 
d="M967 435h-712l-162 -435h-59l544 1456h66l545 -1456h-59zM275 489h672l-305 820l-28 82h-6l-27 -82zM666 1567l-2 -5h-75l-234 261l2 5h89z" />
    <glyph glyph-name="Aacute" unicode="&#xc1;" horiz-adv-x="1223" 
d="M967 435h-712l-162 -435h-59l544 1456h66l545 -1456h-59zM275 489h672l-305 820l-28 82h-6l-27 -82zM775 1822h78l2 -5l-231 -261h-67l-2 5z" />
    <glyph glyph-name="Acircumflex" unicode="&#xc2;" horiz-adv-x="1223" 
d="M967 435h-712l-162 -435h-59l544 1456h66l545 -1456h-59zM275 489h672l-305 820l-28 82h-6l-27 -82zM866 1614v-13h-70l-185 186l-183 -186h-66v17l210 206h80z" />
    <glyph glyph-name="Atilde" unicode="&#xc3;" horiz-adv-x="1223" 
d="M967 435h-712l-162 -435h-59l544 1456h66l545 -1456h-59zM275 489h672l-305 820l-28 82h-6l-27 -82zM909 1801c0 -54.667 -17 -99.3311 -51 -133.998s-75.667 -52 -125 -52c-50.667 0 -102 20.833 -154 62.5s-96.333 62.5 -133 62.5c-34.667 0 -63.5 -12.333 -86.5 -37
s-34.5 -57.334 -34.5 -98.001l-55 10c0 53.333 16.667 96.5 50 129.5s75.333 49.5 126 49.5c48 0 99 -20.667 153 -62s98.667 -62 134 -62c33.333 0 61.833 13.167 85.5 39.5s35.5 60.166 35.5 101.499z" />
    <glyph glyph-name="Adieresis" unicode="&#xc4;" horiz-adv-x="1223" 
d="M967 435h-712l-162 -435h-59l544 1456h66l545 -1456h-59zM275 489h672l-305 820l-28 82h-6l-27 -82zM923 1673h-136v118h136v-118zM454 1673h-137v118h137v-118z" />
    <glyph glyph-name="Aring" unicode="&#xc5;" horiz-adv-x="1223" 
d="M967 435h-712l-162 -435h-59l544 1456h66l545 -1456h-59zM275 489h672l-305 820l-28 82h-6l-27 -82zM474 1726c0 37.333 13.333 69.833 40 97.5s58.667 41.5 96 41.5c36 0 67.167 -13.667 93.5 -41s39.5 -60 39.5 -98s-13 -70 -39 -96s-57.333 -39 -94 -39
c-37.333 0 -69.333 13 -96 39s-40 58 -40 96zM531 1726c0 -22.667 7.66699 -41.5 23 -56.5s34 -22.5 56 -22.5c21.333 0 39.333 7.33301 54 22s22 33.667 22 57s-7.33301 42.833 -22 58.5s-32.667 23.5 -54 23.5c-22 0 -40.667 -7.83301 -56 -23.5s-23 -35.167 -23 -58.5z
" />
    <glyph glyph-name="AE" unicode="&#xc6;" horiz-adv-x="1816" 
d="M1768 0h-752l-18 425h-628l-255 -425h-65l881 1456h776v-54h-696l26 -616h588v-54h-586l28 -678h701v-54zM402 478h594l-39 924l-5 1l-57 -105z" />
    <glyph glyph-name="Ccedilla" unicode="&#xc7;" horiz-adv-x="1327" 
d="M1172 446l2 -6c2.66699 -149.333 -42.5 -263.5 -135.5 -342.5s-215.5 -118.5 -367.5 -118.5c-159.333 0 -287 58.833 -383 176.5s-144 272.167 -144 463.5v218c0 190.667 48 345 144 463s223.667 177 383 177c152 0 274.5 -39.667 367.5 -119
s138.167 -192.666 135.5 -339.999l-2 -6h-46c0 131.333 -40.833 232.666 -122.5 303.999s-192.5 107 -332.5 107c-142 0 -256.333 -53.667 -343 -161s-130 -248.333 -130 -423v-220c0 -176.667 43.333 -318.5 130 -425.5s201 -160.5 343 -160.5
c140 0 250.833 34.333 332.5 103s122.5 172 122.5 310h46zM679 -9l-11 -76c60.667 -4.66699 108.667 -19.834 144 -45.501s53 -66.834 53 -123.501c0 -58 -26.333 -104.167 -79 -138.5s-128 -51.5 -226 -51.5l-7 49c69.333 0 129.5 12 180.5 36s76.5 59 76.5 105
c0 42.667 -15.167 72.334 -45.5 89.001s-84.833 28.334 -163.5 35.001l25 121h53z" />
    <glyph glyph-name="Egrave" unicode="&#xc8;" horiz-adv-x="1166" 
d="M984 732h-730v-678h832v-54h-886v1456h886v-54h-832v-616h730v-54zM673 1567l-2 -5h-75l-234 261l2 5h89z" />
    <glyph glyph-name="Eacute" unicode="&#xc9;" horiz-adv-x="1166" 
d="M984 732h-730v-678h832v-54h-886v1456h886v-54h-832v-616h730v-54zM782 1822h78l2 -5l-231 -261h-67l-2 5z" />
    <glyph glyph-name="Ecircumflex" unicode="&#xca;" horiz-adv-x="1166" 
d="M984 732h-730v-678h832v-54h-886v1456h886v-54h-832v-616h730v-54zM873 1614v-13h-70l-185 186l-183 -186h-66v17l210 206h80z" />
    <glyph glyph-name="Edieresis" unicode="&#xcb;" horiz-adv-x="1166" 
d="M984 732h-730v-678h832v-54h-886v1456h886v-54h-832v-616h730v-54zM930 1673h-136v118h136v-118zM461 1673h-137v118h137v-118z" />
    <glyph glyph-name="Igrave" unicode="&#xcc;" horiz-adv-x="534" 
d="M294 0h-54v1456h54v-1456zM323 1567l-2 -5h-75l-234 261l2 5h89z" />
    <glyph glyph-name="Iacute" unicode="&#xcd;" horiz-adv-x="534" 
d="M294 0h-54v1456h54v-1456zM431 1822h78l2 -5l-231 -261h-67l-2 5z" />
    <glyph glyph-name="Icircumflex" unicode="&#xce;" horiz-adv-x="534" 
d="M294 0h-54v1456h54v-1456zM523 1614v-13h-70l-185 186l-183 -186h-66v17l210 206h80z" />
    <glyph glyph-name="Idieresis" unicode="&#xcf;" horiz-adv-x="534" 
d="M294 0h-54v1456h54v-1456zM580 1673h-136v118h136v-118zM111 1673h-137v118h137v-118z" />
    <glyph glyph-name="Eth" unicode="&#xd0;" horiz-adv-x="1370" 
d="M230 0v713.001h-140v54h140v689h403c167.333 0 309.333 -60 426 -180s175 -273 175 -459v-178c0 -186.667 -58.333 -339.834 -175 -459.501s-258.667 -179.5 -426 -179.5h-403zM677 713.001l-393 -0.00195312v-659h349c151.333 0 280.333 55.333 387 166
s160 250.334 160 419.001v181c0 166.667 -53.333 305.334 -160 416.001s-235.667 166 -387 166h-349v-635h393v-54z" />
    <glyph glyph-name="Ntilde" unicode="&#xd1;" horiz-adv-x="1449" 
d="M1249 0h-54l-934 1356l-6 -2v-1354h-55v1456h55l934 -1353l6 2v1351h54v-1456zM1023 1801c0 -54.667 -17 -99.3311 -51 -133.998s-75.667 -52 -125 -52c-50.667 0 -102 20.833 -154 62.5s-96.333 62.5 -133 62.5c-34.667 0 -63.5 -12.333 -86.5 -37
s-34.5 -57.334 -34.5 -98.001l-55 10c0 53.333 16.667 96.5 50 129.5s75.333 49.5 126 49.5c48 0 99 -20.667 153 -62s98.667 -62 134 -62c33.333 0 61.833 13.167 85.5 39.5s35.5 60.166 35.5 101.499z" />
    <glyph glyph-name="Ograve" unicode="&#xd2;" horiz-adv-x="1364" 
d="M1231 619c0 -196.667 -48.667 -352.5 -146 -467.5s-231.333 -172.5 -402 -172.5c-171.333 0 -305.833 57.5 -403.5 172.5s-146.5 270.833 -146.5 467.5v218c0 196 48.5 351.667 145.5 467s231.167 173 402.5 173c170.667 0 305 -57.667 403 -173s147 -271 147 -467v-218z
M1177 839c0 178.667 -43.001 320.667 -129.001 426s-208.333 158 -367 158c-158 0 -279.667 -52.667 -365 -158s-128 -247.333 -128 -426v-220c0 -180 42.833 -322.667 128.5 -428s207.834 -158 366.501 -158s280.667 52.5 366 157.5s128 247.833 128 428.5v220z
M729.999 1588l-2 -5h-75l-234 261l2 5h89z" />
    <glyph glyph-name="Oacute" unicode="&#xd3;" horiz-adv-x="1364" 
d="M1231 619c0 -196.667 -48.667 -352.5 -146 -467.5s-231.333 -172.5 -402 -172.5c-171.333 0 -305.833 57.5 -403.5 172.5s-146.5 270.833 -146.5 467.5v218c0 196 48.5 351.667 145.5 467s231.167 173 402.5 173c170.667 0 305 -57.667 403 -173s147 -271 147 -467v-218z
M1177 839c0 178.667 -43.001 320.667 -129.001 426s-208.333 158 -367 158c-158 0 -279.667 -52.667 -365 -158s-128 -247.333 -128 -426v-220c0 -180 42.833 -322.667 128.5 -428s207.834 -158 366.501 -158s280.667 52.5 366 157.5s128 247.833 128 428.5v220z
M838.999 1843h78l2 -5l-231 -261h-67l-2 5z" />
    <glyph glyph-name="Ocircumflex" unicode="&#xd4;" horiz-adv-x="1364" 
d="M1231 619c0 -196.667 -48.667 -352.5 -146 -467.5s-231.333 -172.5 -402 -172.5c-171.333 0 -305.833 57.5 -403.5 172.5s-146.5 270.833 -146.5 467.5v218c0 196 48.5 351.667 145.5 467s231.167 173 402.5 173c170.667 0 305 -57.667 403 -173s147 -271 147 -467v-218z
M1177 839c0 178.667 -43.001 320.667 -129.001 426s-208.333 158 -367 158c-158 0 -279.667 -52.667 -365 -158s-128 -247.333 -128 -426v-220c0 -180 42.833 -322.667 128.5 -428s207.834 -158 366.501 -158s280.667 52.5 366 157.5s128 247.833 128 428.5v220z
M929.999 1635v-13h-70l-185 186l-183 -186h-66v17l210 206h80z" />
    <glyph glyph-name="Otilde" unicode="&#xd5;" horiz-adv-x="1364" 
d="M1231 619c0 -196.667 -48.667 -352.5 -146 -467.5s-231.333 -172.5 -402 -172.5c-171.333 0 -305.833 57.5 -403.5 172.5s-146.5 270.833 -146.5 467.5v218c0 196 48.5 351.667 145.5 467s231.167 173 402.5 173c170.667 0 305 -57.667 403 -173s147 -271 147 -467v-218z
M1177 839c0 178.667 -43.001 320.667 -129.001 426s-208.333 158 -367 158c-158 0 -279.667 -52.667 -365 -158s-128 -247.333 -128 -426v-220c0 -180 42.833 -322.667 128.5 -428s207.834 -158 366.501 -158s280.667 52.5 366 157.5s128 247.833 128 428.5v220z
M972.999 1822c0 -54.667 -17 -99.3311 -51 -133.998s-75.667 -52 -125 -52c-50.667 0 -102 20.833 -154 62.5s-96.333 62.5 -133 62.5c-34.667 0 -63.5 -12.333 -86.5 -37s-34.5 -57.334 -34.5 -98.001l-55 10c0 53.333 16.667 96.5 50 129.5s75.333 49.5 126 49.5
c48 0 99 -20.667 153 -62s98.667 -62 134 -62c33.333 0 61.833 13.167 85.5 39.5s35.5 60.166 35.5 101.499z" />
    <glyph glyph-name="Odieresis" unicode="&#xd6;" horiz-adv-x="1364" 
d="M1231 619c0 -196.667 -48.667 -352.5 -146 -467.5s-231.333 -172.5 -402 -172.5c-171.333 0 -305.833 57.5 -403.5 172.5s-146.5 270.833 -146.5 467.5v218c0 196 48.5 351.667 145.5 467s231.167 173 402.5 173c170.667 0 305 -57.667 403 -173s147 -271 147 -467v-218z
M1177 839c0 178.667 -43.001 320.667 -129.001 426s-208.333 158 -367 158c-158 0 -279.667 -52.667 -365 -158s-128 -247.333 -128 -426v-220c0 -180 42.833 -322.667 128.5 -428s207.834 -158 366.501 -158s280.667 52.5 366 157.5s128 247.833 128 428.5v220z
M986.999 1694h-136v118h136v-118zM517.999 1694h-137v118h137v-118z" />
    <glyph glyph-name="multiply" unicode="&#xd7;" horiz-adv-x="1052" 
d="M98 289l384 393l-357 364l39 39l356 -364l357 364l39 -39l-357 -364l385 -393l-39 -37l-384 391l-384 -391z" />
    <glyph glyph-name="Oslash" unicode="&#xd8;" horiz-adv-x="1364" 
d="M1231 619c0 -196.667 -48.667 -352.5 -146 -467.5s-231.333 -172.5 -402 -172.5c-66 0 -126.5 8.66699 -181.5 26s-104.5 43 -148.5 77l-99 -157h-66l123 193c-58 56 -102.167 126.5 -132.5 211.5s-45.5 181.5 -45.5 289.5v218c0 196 48.5 351.667 145.5 467
s231.167 173 402.5 173c80.667 0 154 -13.833 220 -41.5s123 -67.167 171 -118.5l113 178h66l-142 -223c39.333 -55.333 69.5 -119.833 90.5 -193.5s31.5 -154.167 31.5 -241.5v-218zM188 619c0 -97.333 12.6689 -184.333 38.002 -261s62.666 -138.667 111.999 -186l6 -1
l699 1100c-43.333 48.667 -95.333 86.167 -156 112.5s-129.334 39.5 -206.001 39.5c-158 0 -279.667 -52.667 -365 -158s-128 -247.333 -128 -426v-220zM1177 839c0 76.667 -8.16699 147.333 -24.5 212s-40.166 120 -71.499 166l-6 1l-693 -1091
c39.333 -31.333 84.166 -54.833 134.499 -70.5s105.833 -23.5 166.5 -23.5c158.667 0 280.667 52.5 366 157.5s128 247.833 128 428.5v220z" />
    <glyph glyph-name="Ugrave" unicode="&#xd9;" horiz-adv-x="1365" 
d="M1180 1456v-987c0 -158.667 -46 -280 -138 -364s-211.667 -126 -359 -126c-148.667 0 -268.834 42.167 -360.501 126.5s-137.5 205.5 -137.5 363.5v987h54v-987c0 -136.667 41.333 -243.5 124 -320.5s189.334 -115.5 320.001 -115.5c130 0 236.333 38.5 319 115.5
s124 183.833 124 320.5v987h54zM751 1567l-2 -5h-75l-234 261l2 5h89z" />
    <glyph glyph-name="Uacute" unicode="&#xda;" horiz-adv-x="1365" 
d="M1180 1456v-987c0 -158.667 -46 -280 -138 -364s-211.667 -126 -359 -126c-148.667 0 -268.834 42.167 -360.501 126.5s-137.5 205.5 -137.5 363.5v987h54v-987c0 -136.667 41.333 -243.5 124 -320.5s189.334 -115.5 320.001 -115.5c130 0 236.333 38.5 319 115.5
s124 183.833 124 320.5v987h54zM860 1822h78l2 -5l-231 -261h-67l-2 5z" />
    <glyph glyph-name="Ucircumflex" unicode="&#xdb;" horiz-adv-x="1365" 
d="M1180 1456v-987c0 -158.667 -46 -280 -138 -364s-211.667 -126 -359 -126c-148.667 0 -268.834 42.167 -360.501 126.5s-137.5 205.5 -137.5 363.5v987h54v-987c0 -136.667 41.333 -243.5 124 -320.5s189.334 -115.5 320.001 -115.5c130 0 236.333 38.5 319 115.5
s124 183.833 124 320.5v987h54zM951 1614v-13h-70l-185 186l-183 -186h-66v17l210 206h80z" />
    <glyph glyph-name="Udieresis" unicode="&#xdc;" horiz-adv-x="1365" 
d="M1180 1456v-987c0 -158.667 -46 -280 -138 -364s-211.667 -126 -359 -126c-148.667 0 -268.834 42.167 -360.501 126.5s-137.5 205.5 -137.5 363.5v987h54v-987c0 -136.667 41.333 -243.5 124 -320.5s189.334 -115.5 320.001 -115.5c130 0 236.333 38.5 319 115.5
s124 183.833 124 320.5v987h54zM1008 1673h-136v118h136v-118zM539 1673h-137v118h137v-118z" />
    <glyph glyph-name="Yacute" unicode="&#xdd;" horiz-adv-x="1223" 
d="M583 647l26 -50l27 50l483 809h66l-547 -903v-553h-55v553l-547 903h66zM771 1811h78l2 -5l-231 -261h-67l-2 5z" />
    <glyph glyph-name="Thorn" unicode="&#xde;" horiz-adv-x="1219" 
d="M254 1456v-313.001h371c141.333 0 251.666 -37.667 330.999 -113s119 -172.666 119 -291.999c0 -120 -39.667 -217.333 -119 -292s-189.666 -112 -330.999 -112h-371v-334h-54v1456h54zM254 1089l0.000976562 -700.999h371c130 0 228.5 34.667 295.5 104
s100.5 150.666 100.5 243.999c0 96 -33.333 178.833 -100 248.5s-165.334 104.5 -296.001 104.5h-371z" />
    <glyph glyph-name="germandbls" unicode="&#xdf;" horiz-adv-x="1183" 
d="M218 0h-53.998v1082c0 125.333 29.667 222 89 290s142.666 102 249.999 102c82 0 151.167 -24.333 207.5 -73s84.5 -113.667 84.5 -195c0 -67.333 -19.833 -135.5 -59.5 -204.5s-59.5 -136.167 -59.5 -201.5c0 -60 64.333 -137.167 193 -231.5s193 -191.5 193 -291.5
c0 -94 -38 -167.167 -114 -219.5s-160.333 -78.5 -253 -78.5c-58 0 -117.833 8.66699 -179.5 26s-105.834 38.333 -132.501 63l25 49c28 -22.667 68.833 -42.5 122.5 -59.5s105.834 -25.5 156.501 -25.5c93.333 0 170.166 23.833 230.499 71.5s90.5 108.5 90.5 182.5
c0 75.333 -64.333 159.333 -193 252s-193 180.667 -193 264c0 70 18.833 140.667 56.5 212s56.5 136 56.5 194c0 60 -22.5 110.333 -67.5 151s-96.5 61 -154.5 61c-89.333 0 -160.833 -29.167 -214.5 -87.5s-80.5 -141.833 -80.5 -250.5v-1082z" />
    <glyph glyph-name="agrave" unicode="&#xe0;" horiz-adv-x="1081" 
d="M851 200c-37.333 -65.333 -93 -118.499 -167 -159.499s-163.667 -61.5 -269 -61.5c-100.667 0 -179.667 27.5 -237 82.5s-86 129.167 -86 222.5c0 90.667 42.833 166.667 128.5 228s192.834 92 321.501 92h309v158c0 90 -28.833 160.167 -86.5 210.5
s-138.834 75.5 -243.501 75.5c-98 0 -176.833 -23.667 -236.5 -71s-89.5 -108.333 -89.5 -183l-45 2l-2 5c-4 84 28.667 155.167 98 213.5s161 87.5 275 87.5c116 0 209 -29.333 279 -88s105 -143.334 105 -254.001v-542c0 -38 2.16699 -75 6.5 -111s11.5 -71.667 21.5 -107
h-60c-8.66699 47.333 -14.5 82.833 -17.5 106.5s-4.5 49.167 -4.5 76.5v17zM415 32.001c107.333 0 198.167 23.667 272.5 71s128.833 115 163.5 203v243h-306c-112 0 -206.5 -25.833 -283.5 -77.5s-115.5 -115.5 -115.5 -191.5c0 -72.667 24.5 -132.167 73.5 -178.5
s114.167 -69.5 195.5 -69.5zM588.001 1247l-2 -5h-75l-234 261l2 5h89z" />
    <glyph glyph-name="aacute" unicode="&#xe1;" horiz-adv-x="1081" 
d="M851 200c-37.333 -65.333 -93 -118.499 -167 -159.499s-163.667 -61.5 -269 -61.5c-100.667 0 -179.667 27.5 -237 82.5s-86 129.167 -86 222.5c0 90.667 42.833 166.667 128.5 228s192.834 92 321.501 92h309v158c0 90 -28.833 160.167 -86.5 210.5
s-138.834 75.5 -243.501 75.5c-98 0 -176.833 -23.667 -236.5 -71s-89.5 -108.333 -89.5 -183l-45 2l-2 5c-4 84 28.667 155.167 98 213.5s161 87.5 275 87.5c116 0 209 -29.333 279 -88s105 -143.334 105 -254.001v-542c0 -38 2.16699 -75 6.5 -111s11.5 -71.667 21.5 -107
h-60c-8.66699 47.333 -14.5 82.833 -17.5 106.5s-4.5 49.167 -4.5 76.5v17zM415 32.001c107.333 0 198.167 23.667 272.5 71s128.833 115 163.5 203v243h-306c-112 0 -206.5 -25.833 -283.5 -77.5s-115.5 -115.5 -115.5 -191.5c0 -72.667 24.5 -132.167 73.5 -178.5
s114.167 -69.5 195.5 -69.5zM697.001 1502h78l2 -5l-231 -261h-67l-2 5z" />
    <glyph glyph-name="acircumflex" unicode="&#xe2;" horiz-adv-x="1081" 
d="M851 200c-37.333 -65.333 -93 -118.499 -167 -159.499s-163.667 -61.5 -269 -61.5c-100.667 0 -179.667 27.5 -237 82.5s-86 129.167 -86 222.5c0 90.667 42.833 166.667 128.5 228s192.834 92 321.501 92h309v158c0 90 -28.833 160.167 -86.5 210.5
s-138.834 75.5 -243.501 75.5c-98 0 -176.833 -23.667 -236.5 -71s-89.5 -108.333 -89.5 -183l-45 2l-2 5c-4 84 28.667 155.167 98 213.5s161 87.5 275 87.5c116 0 209 -29.333 279 -88s105 -143.334 105 -254.001v-542c0 -38 2.16699 -75 6.5 -111s11.5 -71.667 21.5 -107
h-60c-8.66699 47.333 -14.5 82.833 -17.5 106.5s-4.5 49.167 -4.5 76.5v17zM415 32.001c107.333 0 198.167 23.667 272.5 71s128.833 115 163.5 203v243h-306c-112 0 -206.5 -25.833 -283.5 -77.5s-115.5 -115.5 -115.5 -191.5c0 -72.667 24.5 -132.167 73.5 -178.5
s114.167 -69.5 195.5 -69.5zM788.001 1294v-13h-70l-185 186l-183 -186h-66v17l210 206h80z" />
    <glyph glyph-name="atilde" unicode="&#xe3;" horiz-adv-x="1081" 
d="M851 200c-37.333 -65.333 -93 -118.499 -167 -159.499s-163.667 -61.5 -269 -61.5c-100.667 0 -179.667 27.5 -237 82.5s-86 129.167 -86 222.5c0 90.667 42.833 166.667 128.5 228s192.834 92 321.501 92h309v158c0 90 -28.833 160.167 -86.5 210.5
s-138.834 75.5 -243.501 75.5c-98 0 -176.833 -23.667 -236.5 -71s-89.5 -108.333 -89.5 -183l-45 2l-2 5c-4 84 28.667 155.167 98 213.5s161 87.5 275 87.5c116 0 209 -29.333 279 -88s105 -143.334 105 -254.001v-542c0 -38 2.16699 -75 6.5 -111s11.5 -71.667 21.5 -107
h-60c-8.66699 47.333 -14.5 82.833 -17.5 106.5s-4.5 49.167 -4.5 76.5v17zM415 32.001c107.333 0 198.167 23.667 272.5 71s128.833 115 163.5 203v243h-306c-112 0 -206.5 -25.833 -283.5 -77.5s-115.5 -115.5 -115.5 -191.5c0 -72.667 24.5 -132.167 73.5 -178.5
s114.167 -69.5 195.5 -69.5zM831.001 1481c0 -54.667 -17 -99.3311 -51 -133.998s-75.667 -52 -125 -52c-50.667 0 -102 20.833 -154 62.5s-96.333 62.5 -133 62.5c-34.667 0 -63.5 -12.333 -86.5 -37s-34.5 -57.334 -34.5 -98.001l-55 10c0 53.333 16.667 96.5 50 129.5
s75.333 49.5 126 49.5c48 0 99 -20.667 153 -62s98.667 -62 134 -62c33.333 0 61.833 13.167 85.5 39.5s35.5 60.166 35.5 101.499z" />
    <glyph glyph-name="adieresis" unicode="&#xe4;" horiz-adv-x="1081" 
d="M851 200c-37.333 -65.333 -93 -118.499 -167 -159.499s-163.667 -61.5 -269 -61.5c-100.667 0 -179.667 27.5 -237 82.5s-86 129.167 -86 222.5c0 90.667 42.833 166.667 128.5 228s192.834 92 321.501 92h309v158c0 90 -28.833 160.167 -86.5 210.5
s-138.834 75.5 -243.501 75.5c-98 0 -176.833 -23.667 -236.5 -71s-89.5 -108.333 -89.5 -183l-45 2l-2 5c-4 84 28.667 155.167 98 213.5s161 87.5 275 87.5c116 0 209 -29.333 279 -88s105 -143.334 105 -254.001v-542c0 -38 2.16699 -75 6.5 -111s11.5 -71.667 21.5 -107
h-60c-8.66699 47.333 -14.5 82.833 -17.5 106.5s-4.5 49.167 -4.5 76.5v17zM415 32.001c107.333 0 198.167 23.667 272.5 71s128.833 115 163.5 203v243h-306c-112 0 -206.5 -25.833 -283.5 -77.5s-115.5 -115.5 -115.5 -191.5c0 -72.667 24.5 -132.167 73.5 -178.5
s114.167 -69.5 195.5 -69.5zM845.001 1353h-136v118h136v-118zM376.001 1353h-137v118h137v-118z" />
    <glyph glyph-name="aring" unicode="&#xe5;" horiz-adv-x="1081" 
d="M851 200c-37.333 -65.333 -93 -118.499 -167 -159.499s-163.667 -61.5 -269 -61.5c-100.667 0 -179.667 27.5 -237 82.5s-86 129.167 -86 222.5c0 90.667 42.833 166.667 128.5 228s192.834 92 321.501 92h309v158c0 90 -28.833 160.167 -86.5 210.5
s-138.834 75.5 -243.501 75.5c-98 0 -176.833 -23.667 -236.5 -71s-89.5 -108.333 -89.5 -183l-45 2l-2 5c-4 84 28.667 155.167 98 213.5s161 87.5 275 87.5c116 0 209 -29.333 279 -88s105 -143.334 105 -254.001v-542c0 -38 2.16699 -75 6.5 -111s11.5 -71.667 21.5 -107
h-60c-8.66699 47.333 -14.5 82.833 -17.5 106.5s-4.5 49.167 -4.5 76.5v17zM415 32.001c107.333 0 198.167 23.667 272.5 71s128.833 115 163.5 203v243h-306c-112 0 -206.5 -25.833 -283.5 -77.5s-115.5 -115.5 -115.5 -191.5c0 -72.667 24.5 -132.167 73.5 -178.5
s114.167 -69.5 195.5 -69.5zM396.001 1406c0 37.333 13.333 69.833 40 97.5s58.667 41.5 96 41.5c36 0 67.167 -13.667 93.5 -41s39.5 -60 39.5 -98s-13 -70 -39 -96s-57.333 -39 -94 -39c-37.333 0 -69.333 13 -96 39s-40 58 -40 96zM453.001 1406
c0 -22.667 7.66699 -41.5 23 -56.5s34 -22.5 56 -22.5c21.333 0 39.333 7.33301 54 22s22 33.667 22 57s-7.33301 42.833 -22 58.5s-32.667 23.5 -54 23.5c-22 0 -40.667 -7.83301 -56 -23.5s-23 -35.167 -23 -58.5z" />
    <glyph glyph-name="ae" unicode="&#xe6;" horiz-adv-x="1735" 
d="M1268 -21c-95.333 0 -176.996 21.999 -244.996 65.999s-119.667 105.667 -155 185v-12h1c-29.333 -63.333 -80.333 -119 -153 -167s-162 -72 -268 -72c-112.667 0 -200 27.333 -262 82s-93 129 -93 223c0 104.667 37.167 188.5 111.5 251.5s180.5 94.5 318.5 94.5h290v90
c0 105.333 -24.333 186.333 -73 243s-121.667 85 -219 85c-108 0 -192.833 -26 -254.5 -78s-92.5 -118.333 -92.5 -199l-45 6l-2 6c-3.33301 92 31.167 168.167 103.5 228.5s169.166 90.5 290.499 90.5c92 0 167.667 -24.5 227 -73.5s96.666 -120.5 111.999 -214.5
c35.333 88.667 87.666 158.834 156.999 210.501s148 77.5 236 77.5c125.333 0 224 -39.5 296 -118.5s108 -186.833 108 -323.5v-83h-787v-13v-64c0 -138.667 33 -251.167 99 -337.5s165.667 -129.5 299 -129.5c68 0 130.167 11.5 186.5 34.5s104.833 55.167 145.5 96.5
l30 -42c-43.333 -44 -92.833 -78.833 -148.5 -104.5s-126.834 -38.5 -213.501 -38.5zM447.004 30.999c86.667 0 165.667 21.833 237 65.5s114.333 86.5 129 128.5v350h-288c-123.333 0 -217 -28 -281 -84s-96 -126.333 -96 -211c0 -78 25.833 -139 77.5 -183
s125.5 -66 221.5 -66zM1253 1048c-106 0 -192.832 -38.832 -260.499 -116.499s-105.834 -175.834 -114.501 -294.501l2 -5h723v32c0 112 -30.5 204 -91.5 276s-147.167 108 -258.5 108z" />
    <glyph glyph-name="ccedilla" unicode="&#xe7;" horiz-adv-x="1039" 
d="M539 33c91.333 0 171.998 25.002 241.998 75.002s105 125 105 225h46l2 -6c2.66699 -106 -36.166 -190.5 -116.499 -253.5s-173.166 -94.5 -278.499 -94.5c-138 0 -246.167 49.667 -324.5 149s-117.5 230 -117.5 392v42c0 161.333 39 291.666 117 390.999
s185.667 149 323 149c112 0 206.833 -32.833 284.5 -98.5s115.167 -158.167 112.5 -277.5l-2 -6h-46c0 106 -34 187.167 -102 243.5s-150.333 84.5 -247 84.5c-126.667 0 -222.667 -45.333 -288 -136s-98 -207.334 -98 -350.001v-42c0 -144 32.667 -261.167 98 -351.5
s162 -135.5 290 -135.5zM547.998 -8.99805l-11 -76c60.667 -4.66699 108.667 -19.834 144 -45.501s53 -66.834 53 -123.501c0 -58 -26.333 -104.167 -79 -138.5s-128 -51.5 -226 -51.5l-7 49c69.333 0 129.5 12 180.5 36s76.5 59 76.5 105
c0 42.667 -15.167 72.334 -45.5 89.001s-84.833 28.334 -163.5 35.001l25 121h53z" />
    <glyph glyph-name="egrave" unicode="&#xe8;" horiz-adv-x="1032" 
d="M541 -21c-123.333 0 -229.833 49.832 -319.5 149.499s-134.5 223.5 -134.5 371.5v64c0 155.333 43.333 283.833 130 385.5s193.667 152.5 321 152.5c122 0 221.5 -40 298.5 -120s115.5 -187.333 115.5 -322v-83h-811v-13v-64c0 -130.667 38.333 -241.167 115 -331.5
s171.667 -135.5 285 -135.5c80.667 0 148.167 11 202.5 33s100.833 55 139.5 99l29 -42c-42.667 -47.333 -94.5 -83.166 -155.5 -107.499s-132.833 -36.5 -215.5 -36.5zM538 1048c-107.333 0 -196.667 -39.168 -268 -117.501s-111.666 -176.166 -120.999 -293.499l3 -6h746
v33c0 110 -33.333 201.5 -100 274.5s-153.334 109.5 -260.001 109.5zM620.999 1246l-2 -5h-75l-234 261l2 5h89z" />
    <glyph glyph-name="eacute" unicode="&#xe9;" horiz-adv-x="1032" 
d="M541 -21c-123.333 0 -229.833 49.832 -319.5 149.499s-134.5 223.5 -134.5 371.5v64c0 155.333 43.333 283.833 130 385.5s193.667 152.5 321 152.5c122 0 221.5 -40 298.5 -120s115.5 -187.333 115.5 -322v-83h-811v-13v-64c0 -130.667 38.333 -241.167 115 -331.5
s171.667 -135.5 285 -135.5c80.667 0 148.167 11 202.5 33s100.833 55 139.5 99l29 -42c-42.667 -47.333 -94.5 -83.166 -155.5 -107.499s-132.833 -36.5 -215.5 -36.5zM538 1048c-107.333 0 -196.667 -39.168 -268 -117.501s-111.666 -176.166 -120.999 -293.499l3 -6h746
v33c0 110 -33.333 201.5 -100 274.5s-153.334 109.5 -260.001 109.5zM729.999 1501h78l2 -5l-231 -261h-67l-2 5z" />
    <glyph glyph-name="ecircumflex" unicode="&#xea;" horiz-adv-x="1032" 
d="M541 -21c-123.333 0 -229.833 49.832 -319.5 149.499s-134.5 223.5 -134.5 371.5v64c0 155.333 43.333 283.833 130 385.5s193.667 152.5 321 152.5c122 0 221.5 -40 298.5 -120s115.5 -187.333 115.5 -322v-83h-811v-13v-64c0 -130.667 38.333 -241.167 115 -331.5
s171.667 -135.5 285 -135.5c80.667 0 148.167 11 202.5 33s100.833 55 139.5 99l29 -42c-42.667 -47.333 -94.5 -83.166 -155.5 -107.499s-132.833 -36.5 -215.5 -36.5zM538 1048c-107.333 0 -196.667 -39.168 -268 -117.501s-111.666 -176.166 -120.999 -293.499l3 -6h746
v33c0 110 -33.333 201.5 -100 274.5s-153.334 109.5 -260.001 109.5zM820.999 1293v-13h-70l-185 186l-183 -186h-66v17l210 206h80z" />
    <glyph glyph-name="edieresis" unicode="&#xeb;" horiz-adv-x="1032" 
d="M541 -21c-123.333 0 -229.833 49.832 -319.5 149.499s-134.5 223.5 -134.5 371.5v64c0 155.333 43.333 283.833 130 385.5s193.667 152.5 321 152.5c122 0 221.5 -40 298.5 -120s115.5 -187.333 115.5 -322v-83h-811v-13v-64c0 -130.667 38.333 -241.167 115 -331.5
s171.667 -135.5 285 -135.5c80.667 0 148.167 11 202.5 33s100.833 55 139.5 99l29 -42c-42.667 -47.333 -94.5 -83.166 -155.5 -107.499s-132.833 -36.5 -215.5 -36.5zM538 1048c-107.333 0 -196.667 -39.168 -268 -117.501s-111.666 -176.166 -120.999 -293.499l3 -6h746
v33c0 110 -33.333 201.5 -100 274.5s-153.334 109.5 -260.001 109.5zM877.999 1352h-136v118h136v-118zM408.999 1352h-137v118h137v-118z" />
    <glyph glyph-name="igrave" unicode="&#xec;" horiz-adv-x="406" 
d="M235 0h-54v1082h54v-1082zM264 1224l-2 -5h-75l-234 261l2 5h89z" />
    <glyph glyph-name="iacute" unicode="&#xed;" horiz-adv-x="406" 
d="M235 0h-54v1082h54v-1082zM372 1479h78l2 -5l-231 -261h-67l-2 5z" />
    <glyph glyph-name="icircumflex" unicode="&#xee;" horiz-adv-x="406" 
d="M235 0h-54v1082h54v-1082zM464 1271v-13h-70l-185 186l-183 -186h-66v17l210 206h80z" />
    <glyph glyph-name="idieresis" unicode="&#xef;" horiz-adv-x="406" 
d="M235 0h-54v1082h54v-1082zM521 1331h-136v118h136v-118zM52 1331h-137v118h137v-118z" />
    <glyph glyph-name="eth" unicode="&#xf0;" horiz-adv-x="1183" 
d="M827 1323c72 -68 125.67 -148.166 161.003 -240.499s53 -201.5 53 -327.5v-220c0 -163.333 -43.833 -296.833 -131.5 -400.5s-197.834 -155.5 -330.501 -155.5s-241.834 44.833 -327.501 134.5s-128.5 200.5 -128.5 332.5c0 160.667 39.5 285.334 118.5 374.001
s188.833 133 329.5 133c91.333 0 173.5 -17 246.5 -51s127.167 -81 162.5 -141l4 5c0.666992 119.333 -17 222.166 -53 308.499s-87.333 159.833 -154 220.5l-360 -206l-28 48l341 195c-36 26.667 -74.833 51 -116.5 73s-86.834 42.667 -135.501 62l20 50
c56.667 -22.667 108.5 -46.834 155.5 -72.501s89.833 -53.167 128.5 -82.5l260 149l29 -48zM583.003 37.001c119.333 0 216.501 46.5 291.501 139.5s112.5 212.5 112.5 358.5v128c-28.667 63.333 -78.834 117.833 -150.501 163.5s-160.167 68.5 -265.5 68.5
c-132 0 -230.5 -41.5 -295.5 -124.5s-97.5 -191.167 -97.5 -324.5c0 -109.333 36.5 -204.833 109.5 -286.5s171.5 -122.5 295.5 -122.5z" />
    <glyph glyph-name="ntilde" unicode="&#xf1;" 
d="M218 1082l6.99902 -222.999c32.667 77.333 80.334 137.166 143.001 179.499s140 63.5 232 63.5c118 0 206.5 -37.167 265.5 -111.5s88.5 -192.166 88.5 -353.499v-637h-54v639c0 150 -26.833 255.667 -80.5 317s-126.5 92 -218.5 92
c-116.667 0 -204.667 -34.833 -264 -104.5s-96.333 -158.834 -111 -267.501v-676h-54v1082h46zM874.999 1479c0 -54.667 -17 -99.3311 -51 -133.998s-75.667 -52 -125 -52c-50.667 0 -102 20.833 -154 62.5s-96.333 62.5 -133 62.5c-34.667 0 -63.5 -12.333 -86.5 -37
s-34.5 -57.334 -34.5 -98.001l-55 10c0 53.333 16.667 96.5 50 129.5s75.333 49.5 126 49.5c48 0 99 -20.667 153 -62s98.667 -62 134 -62c33.333 0 61.833 13.167 85.5 39.5s35.5 60.166 35.5 101.499z" />
    <glyph glyph-name="ograve" unicode="&#xf2;" 
d="M87 562c0 158.667 43.832 288.334 131.499 389.001s201.5 151 341.5 151c140.667 0 254.834 -50.333 342.501 -151s131.5 -230.334 131.5 -389.001v-42c0 -159.333 -43.833 -289.333 -131.5 -390s-201.167 -151 -340.5 -151c-140.667 0 -255 50.333 -343 151
s-132 230.667 -132 390v42zM140.999 520c0 -136 38.001 -251.167 114.001 -345.5s178.333 -141.5 307 -141.5c126.667 0 228 47.333 304 142s114 209.667 114 345v42c0 132.667 -38.333 246.834 -115 342.501s-178.334 143.5 -305.001 143.5
c-127.333 0 -229 -47.833 -305 -143.5s-114 -209.834 -114 -342.501v-42zM636 1245l-2 -5h-75l-234 261l2 5h89z" />
    <glyph glyph-name="oacute" unicode="&#xf3;" 
d="M87 562c0 158.667 43.832 288.334 131.499 389.001s201.5 151 341.5 151c140.667 0 254.834 -50.333 342.501 -151s131.5 -230.334 131.5 -389.001v-42c0 -159.333 -43.833 -289.333 -131.5 -390s-201.167 -151 -340.5 -151c-140.667 0 -255 50.333 -343 151
s-132 230.667 -132 390v42zM140.999 520c0 -136 38.001 -251.167 114.001 -345.5s178.333 -141.5 307 -141.5c126.667 0 228 47.333 304 142s114 209.667 114 345v42c0 132.667 -38.333 246.834 -115 342.501s-178.334 143.5 -305.001 143.5
c-127.333 0 -229 -47.833 -305 -143.5s-114 -209.834 -114 -342.501v-42zM745 1500h78l2 -5l-231 -261h-67l-2 5z" />
    <glyph glyph-name="ocircumflex" unicode="&#xf4;" 
d="M87 562c0 158.667 43.832 288.334 131.499 389.001s201.5 151 341.5 151c140.667 0 254.834 -50.333 342.501 -151s131.5 -230.334 131.5 -389.001v-42c0 -159.333 -43.833 -289.333 -131.5 -390s-201.167 -151 -340.5 -151c-140.667 0 -255 50.333 -343 151
s-132 230.667 -132 390v42zM140.999 520c0 -136 38.001 -251.167 114.001 -345.5s178.333 -141.5 307 -141.5c126.667 0 228 47.333 304 142s114 209.667 114 345v42c0 132.667 -38.333 246.834 -115 342.501s-178.334 143.5 -305.001 143.5
c-127.333 0 -229 -47.833 -305 -143.5s-114 -209.834 -114 -342.501v-42zM836 1292v-13h-70l-185 186l-183 -186h-66v17l210 206h80z" />
    <glyph glyph-name="otilde" unicode="&#xf5;" 
d="M87 562c0 158.667 43.832 288.334 131.499 389.001s201.5 151 341.5 151c140.667 0 254.834 -50.333 342.501 -151s131.5 -230.334 131.5 -389.001v-42c0 -159.333 -43.833 -289.333 -131.5 -390s-201.167 -151 -340.5 -151c-140.667 0 -255 50.333 -343 151
s-132 230.667 -132 390v42zM140.999 520c0 -136 38.001 -251.167 114.001 -345.5s178.333 -141.5 307 -141.5c126.667 0 228 47.333 304 142s114 209.667 114 345v42c0 132.667 -38.333 246.834 -115 342.501s-178.334 143.5 -305.001 143.5
c-127.333 0 -229 -47.833 -305 -143.5s-114 -209.834 -114 -342.501v-42zM879 1479c0 -54.667 -17 -99.3311 -51 -133.998s-75.667 -52 -125 -52c-50.667 0 -102 20.833 -154 62.5s-96.333 62.5 -133 62.5c-34.667 0 -63.5 -12.333 -86.5 -37s-34.5 -57.334 -34.5 -98.001
l-55 10c0 53.333 16.667 96.5 50 129.5s75.333 49.5 126 49.5c48 0 99 -20.667 153 -62s98.667 -62 134 -62c33.333 0 61.833 13.167 85.5 39.5s35.5 60.166 35.5 101.499z" />
    <glyph glyph-name="odieresis" unicode="&#xf6;" 
d="M87 562c0 158.667 43.832 288.334 131.499 389.001s201.5 151 341.5 151c140.667 0 254.834 -50.333 342.501 -151s131.5 -230.334 131.5 -389.001v-42c0 -159.333 -43.833 -289.333 -131.5 -390s-201.167 -151 -340.5 -151c-140.667 0 -255 50.333 -343 151
s-132 230.667 -132 390v42zM140.999 520c0 -136 38.001 -251.167 114.001 -345.5s178.333 -141.5 307 -141.5c126.667 0 228 47.333 304 142s114 209.667 114 345v42c0 132.667 -38.333 246.834 -115 342.501s-178.334 143.5 -305.001 143.5
c-127.333 0 -229 -47.833 -305 -143.5s-114 -209.834 -114 -342.501v-42zM893 1351h-136v118h136v-118zM424 1351h-137v118h137v-118z" />
    <glyph glyph-name="divide" unicode="&#xf7;" horiz-adv-x="1159" 
d="M1071 686h-998v52h998v-52zM631 1020h-96v122h96v-122zM631 241h-96v122h96v-122z" />
    <glyph glyph-name="oslash" unicode="&#xf8;" 
d="M87 562c0 158.667 43.8311 288.332 131.498 388.999s201.5 151 341.5 151c40.667 0 79.834 -4.83301 117.501 -14.5s73.167 -23.167 106.5 -40.5l84 172h63l-99 -203c63.333 -47.333 112.833 -110.333 148.5 -189s53.5 -167 53.5 -265v-42
c0 -159.333 -43.833 -289.333 -131.5 -390s-201.167 -151 -340.5 -151c-38.667 0 -75.667 4 -111 12s-68.666 20 -99.999 36l-83 -172h-63l97 201c-68 45.333 -120.833 108.333 -158.5 189s-56.5 172.334 -56.5 275.001v42zM140.998 519.998
c0 -86.667 16 -166.166 48 -238.499s77 -128.5 135 -168.5h6l429 882c-29.333 16.667 -60.5 29.667 -93.5 39s-68.167 14 -105.5 14c-127.333 0 -229 -47.833 -305 -143.5s-114 -209.834 -114 -342.501v-42zM979.998 561.999c0 80 -15.167 155.333 -45.5 226
s-72.166 126.667 -125.499 168l-6 1l-428 -880c27.333 -14.667 56.666 -25.667 87.999 -33s64.333 -11 99 -11c126.667 0 228 47.333 304 142s114 209.667 114 345v42z" />
    <glyph glyph-name="ugrave" unicode="&#xf9;" 
d="M899 194c-34 -68.667 -82.5 -121.666 -145.5 -158.999s-139.5 -56 -229.5 -56c-111.333 0 -198.5 39.5 -261.5 118.5s-94.5 201.5 -94.5 367.5v617h54v-619c0 -146.667 27 -255 81 -325s127 -105 219 -105c112.667 0 199.167 27.667 259.5 83
s98.833 128.666 115.5 219.999v746h55v-1082h-45zM634 1224l-2 -5h-75l-234 261l2 5h89z" />
    <glyph glyph-name="uacute" unicode="&#xfa;" 
d="M899 194c-34 -68.667 -82.5 -121.666 -145.5 -158.999s-139.5 -56 -229.5 -56c-111.333 0 -198.5 39.5 -261.5 118.5s-94.5 201.5 -94.5 367.5v617h54v-619c0 -146.667 27 -255 81 -325s127 -105 219 -105c112.667 0 199.167 27.667 259.5 83
s98.833 128.666 115.5 219.999v746h55v-1082h-45zM743 1479h78l2 -5l-231 -261h-67l-2 5z" />
    <glyph glyph-name="ucircumflex" unicode="&#xfb;" 
d="M899 194c-34 -68.667 -82.5 -121.666 -145.5 -158.999s-139.5 -56 -229.5 -56c-111.333 0 -198.5 39.5 -261.5 118.5s-94.5 201.5 -94.5 367.5v617h54v-619c0 -146.667 27 -255 81 -325s127 -105 219 -105c112.667 0 199.167 27.667 259.5 83
s98.833 128.666 115.5 219.999v746h55v-1082h-45zM834 1271v-13h-70l-185 186l-183 -186h-66v17l210 206h80z" />
    <glyph glyph-name="udieresis" unicode="&#xfc;" 
d="M899 194c-34 -68.667 -82.5 -121.666 -145.5 -158.999s-139.5 -56 -229.5 -56c-111.333 0 -198.5 39.5 -261.5 118.5s-94.5 201.5 -94.5 367.5v617h54v-619c0 -146.667 27 -255 81 -325s127 -105 219 -105c112.667 0 199.167 27.667 259.5 83
s98.833 128.666 115.5 219.999v746h55v-1082h-45zM891 1331h-136v118h136v-118zM422 1331h-137v118h137v-118z" />
    <glyph glyph-name="yacute" unicode="&#xfd;" horiz-adv-x="978" 
d="M458 196l40 -108h6l6 16l374 978h60l-481 -1262c-29.333 -76 -63.5 -137.833 -102.5 -185.5s-101.167 -71.5 -186.5 -71.5c-12.667 0 -26.667 1.16699 -42 3.5s-26.666 4.83301 -33.999 7.5l9 51c7.33301 -2 18.333 -4 33 -6s26 -3 34 -3c61.333 0 109.166 18 143.499 54
s64.833 89.333 91.5 160l65 176l-431 1076h59zM677 1479h78l2 -5l-231 -261h-67l-2 5z" />
    <glyph glyph-name="thorn" unicode="&#xfe;" 
d="M999 521c0 -166.667 -35.999 -298.667 -107.999 -396s-171.333 -146 -298 -146c-84.667 0 -158.5 17 -221.5 51s-112.167 80 -147.5 138v-584h-54v1976h54v-671c36 66 85 118 147 156s135.333 57 220 57c127.333 0 227.166 -50.5 299.499 -151.5
s108.5 -237.167 108.5 -408.5v-21zM944.001 542c0 150 -30.1689 271.834 -90.502 365.501s-147.5 140.5 -261.5 140.5c-104.667 0 -186 -26.333 -244 -79s-99.333 -117.334 -124 -194.001v-506c26.667 -72 71.334 -129.333 134.001 -172s141.334 -64 236.001 -64
c114 0 200.833 44 260.5 132s89.5 206.667 89.5 356v21z" />
    <glyph glyph-name="ydieresis" unicode="&#xff;" horiz-adv-x="978" 
d="M458 196l40 -108h6l6 16l374 978h60l-481 -1262c-29.333 -76 -63.5 -137.833 -102.5 -185.5s-101.167 -71.5 -186.5 -71.5c-12.667 0 -26.667 1.16699 -42 3.5s-26.666 4.83301 -33.999 7.5l9 51c7.33301 -2 18.333 -4 33 -6s26 -3 34 -3c61.333 0 109.166 18 143.499 54
s64.833 89.333 91.5 160l65 176l-431 1076h59zM825 1331h-136v118h136v-118zM356 1331h-137v118h137v-118z" />
    <glyph glyph-name="Amacron" unicode="&#x100;" horiz-adv-x="1223" 
d="M967 435h-712l-162 -435h-59l544 1456h66l545 -1456h-59zM275 489h672l-305 820l-28 82h-6l-27 -82zM918 1733h-627v53h627v-53z" />
    <glyph glyph-name="amacron" unicode="&#x101;" horiz-adv-x="1081" 
d="M851 200c-37.333 -65.333 -93 -118.499 -167 -159.499s-163.667 -61.5 -269 -61.5c-100.667 0 -179.667 27.5 -237 82.5s-86 129.167 -86 222.5c0 90.667 42.833 166.667 128.5 228s192.834 92 321.501 92h309v158c0 90 -28.833 160.167 -86.5 210.5
s-138.834 75.5 -243.501 75.5c-98 0 -176.833 -23.667 -236.5 -71s-89.5 -108.333 -89.5 -183l-45 2l-2 5c-4 84 28.667 155.167 98 213.5s161 87.5 275 87.5c116 0 209 -29.333 279 -88s105 -143.334 105 -254.001v-542c0 -38 2.16699 -75 6.5 -111s11.5 -71.667 21.5 -107
h-60c-8.66699 47.333 -14.5 82.833 -17.5 106.5s-4.5 49.167 -4.5 76.5v17zM415 32.001c107.333 0 198.167 23.667 272.5 71s128.833 115 163.5 203v243h-306c-112 0 -206.5 -25.833 -283.5 -77.5s-115.5 -115.5 -115.5 -191.5c0 -72.667 24.5 -132.167 73.5 -178.5
s114.167 -69.5 195.5 -69.5zM840.001 1413h-627v53h627v-53z" />
    <glyph glyph-name="Abreve" unicode="&#x102;" horiz-adv-x="1223" 
d="M967 435h-712l-162 -435h-59l544 1456h66l545 -1456h-59zM275 489h672l-305 820l-28 82h-6l-27 -82zM881 1839l1.99902 -6.00098c2.66699 -71.333 -20.666 -129.5 -69.999 -174.5s-116.666 -67.5 -201.999 -67.5c-86 0 -153.833 22.5 -203.5 67.5
s-72.834 103.167 -69.501 174.5l2 6h46c0 -57.333 18 -103.666 54 -138.999s93 -53 171 -53c74.667 0 130.667 18 168 54s56 82 56 138h46z" />
    <glyph glyph-name="abreve" unicode="&#x103;" horiz-adv-x="1081" 
d="M851 200c-37.333 -65.333 -93 -118.499 -167 -159.499s-163.667 -61.5 -269 -61.5c-100.667 0 -179.667 27.5 -237 82.5s-86 129.167 -86 222.5c0 90.667 42.833 166.667 128.5 228s192.834 92 321.501 92h309v158c0 90 -28.833 160.167 -86.5 210.5
s-138.834 75.5 -243.501 75.5c-98 0 -176.833 -23.667 -236.5 -71s-89.5 -108.333 -89.5 -183l-45 2l-2 5c-4 84 28.667 155.167 98 213.5s161 87.5 275 87.5c116 0 209 -29.333 279 -88s105 -143.334 105 -254.001v-542c0 -38 2.16699 -75 6.5 -111s11.5 -71.667 21.5 -107
h-60c-8.66699 47.333 -14.5 82.833 -17.5 106.5s-4.5 49.167 -4.5 76.5v17zM415 32.001c107.333 0 198.167 23.667 272.5 71s128.833 115 163.5 203v243h-306c-112 0 -206.5 -25.833 -283.5 -77.5s-115.5 -115.5 -115.5 -191.5c0 -72.667 24.5 -132.167 73.5 -178.5
s114.167 -69.5 195.5 -69.5zM803.001 1519l1.99902 -6.00098c2.66699 -71.333 -20.666 -129.5 -69.999 -174.5s-116.666 -67.5 -201.999 -67.5c-86 0 -153.833 22.5 -203.5 67.5s-72.834 103.167 -69.501 174.5l2 6h46c0 -57.333 18 -103.666 54 -138.999s93 -53 171 -53
c74.667 0 130.667 18 168 54s56 82 56 138h46z" />
    <glyph glyph-name="Aogonek" unicode="&#x104;" horiz-adv-x="1223" 
d="M967 435h-712l-162 -435h-59l544 1456h66l545 -1456h-59zM275 489h672l-305 820l-28 82h-6l-27 -82zM1179 0c-50.667 -46 -88.002 -84.834 -112.002 -116.501s-36 -67.167 -36 -106.5c0 -15.333 5.33301 -32.5 16 -51.5s33.334 -28.5 68.001 -28.5
c23.333 0 43.333 3.5 60 10.5s33.334 16.167 50.001 27.5l16 -48c-16 -12 -34.167 -22.333 -54.5 -31s-44.166 -13 -71.499 -13c-40.667 0 -73.834 11.833 -99.501 35.5s-38.5 56.5 -38.5 98.5c0 40.667 14 81.834 42 123.501s64 81.5 108 119.5z" />
    <glyph glyph-name="aogonek" unicode="&#x105;" horiz-adv-x="1081" 
d="M851 200c-37.333 -65.333 -93 -118.499 -167 -159.499s-163.667 -61.5 -269 -61.5c-100.667 0 -179.667 27.5 -237 82.5s-86 129.167 -86 222.5c0 90.667 42.833 166.667 128.5 228s192.834 92 321.501 92h309v158c0 90 -28.833 160.167 -86.5 210.5
s-138.834 75.5 -243.501 75.5c-98 0 -176.833 -23.667 -236.5 -71s-89.5 -108.333 -89.5 -183l-45 2l-2 5c-4 84 28.667 155.167 98 213.5s161 87.5 275 87.5c116 0 209 -29.333 279 -88s105 -143.334 105 -254.001v-542c0 -38 2.16699 -75 6.5 -111s11.5 -71.667 21.5 -107
h-60c-8.66699 47.333 -14.5 82.833 -17.5 106.5s-4.5 49.167 -4.5 76.5v17zM415 32.001c107.333 0 198.167 23.667 272.5 71s128.833 115 163.5 203v243h-306c-112 0 -206.5 -25.833 -283.5 -77.5s-115.5 -115.5 -115.5 -191.5c0 -72.667 24.5 -132.167 73.5 -178.5
s114.167 -69.5 195.5 -69.5zM923.001 0.000976562c-50.667 -46 -88.002 -84.834 -112.002 -116.501s-36 -67.167 -36 -106.5c0 -15.333 5.33301 -32.5 16 -51.5s33.334 -28.5 68.001 -28.5c23.333 0 43.333 3.5 60 10.5s33.334 16.167 50.001 27.5l16 -48
c-16 -12 -34.167 -22.333 -54.5 -31s-44.166 -13 -71.499 -13c-40.667 0 -73.834 11.833 -99.501 35.5s-38.5 56.5 -38.5 98.5c0 40.667 14 81.834 42 123.501s64 81.5 108 119.5z" />
    <glyph glyph-name="Cacute" unicode="&#x106;" horiz-adv-x="1327" 
d="M1172 446l2 -6c2.66699 -149.333 -42.5 -263.5 -135.5 -342.5s-215.5 -118.5 -367.5 -118.5c-159.333 0 -287 58.833 -383 176.5s-144 272.167 -144 463.5v218c0 190.667 48 345 144 463s223.667 177 383 177c152 0 274.5 -39.667 367.5 -119
s138.167 -192.666 135.5 -339.999l-2 -6h-46c0 131.333 -40.833 232.666 -122.5 303.999s-192.5 107 -332.5 107c-142 0 -256.333 -53.667 -343 -161s-130 -248.333 -130 -423v-220c0 -176.667 43.333 -318.5 130 -425.5s201 -160.5 343 -160.5
c140 0 250.833 34.333 332.5 103s122.5 172 122.5 310h46zM841 1843h78l2 -5l-231 -261h-67l-2 5z" />
    <glyph glyph-name="cacute" unicode="&#x107;" horiz-adv-x="1039" 
d="M539 33c91.333 0 171.998 25.002 241.998 75.002s105 125 105 225h46l2 -6c2.66699 -106 -36.166 -190.5 -116.499 -253.5s-173.166 -94.5 -278.499 -94.5c-138 0 -246.167 49.667 -324.5 149s-117.5 230 -117.5 392v42c0 161.333 39 291.666 117 390.999
s185.667 149 323 149c112 0 206.833 -32.833 284.5 -98.5s115.167 -158.167 112.5 -277.5l-2 -6h-46c0 106 -34 187.167 -102 243.5s-150.333 84.5 -247 84.5c-126.667 0 -222.667 -45.333 -288 -136s-98 -207.334 -98 -350.001v-42c0 -144 32.667 -261.167 98 -351.5
s162 -135.5 290 -135.5zM709.998 1500h78l2 -5l-231 -261h-67l-2 5z" />
    <glyph glyph-name="Ccircumflex" unicode="&#x108;" horiz-adv-x="1327" 
d="M1172 446l2 -6c2.66699 -149.333 -42.5 -263.5 -135.5 -342.5s-215.5 -118.5 -367.5 -118.5c-159.333 0 -287 58.833 -383 176.5s-144 272.167 -144 463.5v218c0 190.667 48 345 144 463s223.667 177 383 177c152 0 274.5 -39.667 367.5 -119
s138.167 -192.666 135.5 -339.999l-2 -6h-46c0 131.333 -40.833 232.666 -122.5 303.999s-192.5 107 -332.5 107c-142 0 -256.333 -53.667 -343 -161s-130 -248.333 -130 -423v-220c0 -176.667 43.333 -318.5 130 -425.5s201 -160.5 343 -160.5
c140 0 250.833 34.333 332.5 103s122.5 172 122.5 310h46zM932 1635v-13h-70l-185 186l-183 -186h-66v17l210 206h80z" />
    <glyph glyph-name="ccircumflex" unicode="&#x109;" horiz-adv-x="1039" 
d="M539 33c91.333 0 171.998 25.002 241.998 75.002s105 125 105 225h46l2 -6c2.66699 -106 -36.166 -190.5 -116.499 -253.5s-173.166 -94.5 -278.499 -94.5c-138 0 -246.167 49.667 -324.5 149s-117.5 230 -117.5 392v42c0 161.333 39 291.666 117 390.999
s185.667 149 323 149c112 0 206.833 -32.833 284.5 -98.5s115.167 -158.167 112.5 -277.5l-2 -6h-46c0 106 -34 187.167 -102 243.5s-150.333 84.5 -247 84.5c-126.667 0 -222.667 -45.333 -288 -136s-98 -207.334 -98 -350.001v-42c0 -144 32.667 -261.167 98 -351.5
s162 -135.5 290 -135.5zM800.998 1292v-13h-70l-185 186l-183 -186h-66v17l210 206h80z" />
    <glyph glyph-name="uni010A" unicode="&#x10a;" horiz-adv-x="1327" 
d="M1172 446l2 -6c2.66699 -149.333 -42.5 -263.5 -135.5 -342.5s-215.5 -118.5 -367.5 -118.5c-159.333 0 -287 58.833 -383 176.5s-144 272.167 -144 463.5v218c0 190.667 48 345 144 463s223.667 177 383 177c152 0 274.5 -39.667 367.5 -119
s138.167 -192.666 135.5 -339.999l-2 -6h-46c0 131.333 -40.833 232.666 -122.5 303.999s-192.5 107 -332.5 107c-142 0 -256.333 -53.667 -343 -161s-130 -248.333 -130 -423v-220c0 -176.667 43.333 -318.5 130 -425.5s201 -160.5 343 -160.5
c140 0 250.833 34.333 332.5 103s122.5 172 122.5 310h46zM724 1688h-95v138h95v-138z" />
    <glyph glyph-name="uni010B" unicode="&#x10b;" horiz-adv-x="1039" 
d="M539 33c91.333 0 171.998 25.002 241.998 75.002s105 125 105 225h46l2 -6c2.66699 -106 -36.166 -190.5 -116.499 -253.5s-173.166 -94.5 -278.499 -94.5c-138 0 -246.167 49.667 -324.5 149s-117.5 230 -117.5 392v42c0 161.333 39 291.666 117 390.999
s185.667 149 323 149c112 0 206.833 -32.833 284.5 -98.5s115.167 -158.167 112.5 -277.5l-2 -6h-46c0 106 -34 187.167 -102 243.5s-150.333 84.5 -247 84.5c-126.667 0 -222.667 -45.333 -288 -136s-98 -207.334 -98 -350.001v-42c0 -144 32.667 -261.167 98 -351.5
s162 -135.5 290 -135.5zM592.998 1345h-95v138h95v-138z" />
    <glyph glyph-name="Ccaron" unicode="&#x10c;" horiz-adv-x="1327" 
d="M1172 446l2 -6c2.66699 -149.333 -42.5 -263.5 -135.5 -342.5s-215.5 -118.5 -367.5 -118.5c-159.333 0 -287 58.833 -383 176.5s-144 272.167 -144 463.5v218c0 190.667 48 345 144 463s223.667 177 383 177c152 0 274.5 -39.667 367.5 -119
s138.167 -192.666 135.5 -339.999l-2 -6h-46c0 131.333 -40.833 232.666 -122.5 303.999s-192.5 107 -332.5 107c-142 0 -256.333 -53.667 -343 -161s-130 -248.333 -130 -423v-220c0 -176.667 43.333 -318.5 130 -425.5s201 -160.5 343 -160.5
c140 0 250.833 34.333 332.5 103s122.5 172 122.5 310h46zM677 1661l184 187h67v-16l-212 -207h-79l-214 209v14h71z" />
    <glyph glyph-name="ccaron" unicode="&#x10d;" horiz-adv-x="1039" 
d="M539 33c91.333 0 171.998 25.002 241.998 75.002s105 125 105 225h46l2 -6c2.66699 -106 -36.166 -190.5 -116.499 -253.5s-173.166 -94.5 -278.499 -94.5c-138 0 -246.167 49.667 -324.5 149s-117.5 230 -117.5 392v42c0 161.333 39 291.666 117 390.999
s185.667 149 323 149c112 0 206.833 -32.833 284.5 -98.5s115.167 -158.167 112.5 -277.5l-2 -6h-46c0 106 -34 187.167 -102 243.5s-150.333 84.5 -247 84.5c-126.667 0 -222.667 -45.333 -288 -136s-98 -207.334 -98 -350.001v-42c0 -144 32.667 -261.167 98 -351.5
s162 -135.5 290 -135.5zM545.998 1318l184 187h67v-16l-212 -207h-79l-214 209v14h71z" />
    <glyph glyph-name="Dcaron" unicode="&#x10e;" horiz-adv-x="1340" 
d="M200 0v1456h403c167.333 0 309.333 -60 426 -180s175 -273 175 -459v-178c0 -186.667 -58.333 -339.834 -175 -459.501s-258.667 -179.5 -426 -179.5h-403zM254 1402v-1348h349c151.333 0 280.333 55.333 387 166s160 250.334 160 419.001v181
c0 166.667 -53.333 305.334 -160 416.001s-235.667 166 -387 166h-349zM589 1640l184 187h67v-16l-212 -207h-79l-214 209v14h71z" />
    <glyph glyph-name="dcaron" unicode="&#x10f;" horiz-adv-x="1271" 
d="M122 542c0 171.333 35.998 307.5 107.998 408.5s172 151.5 300 151.5c84.667 0 157.834 -19 219.501 -57s110.834 -90 147.501 -156v671h54v-1560h-52l-2 168c-36 -58 -85.5 -104 -148.5 -138s-136.5 -51 -220.5 -51c-127.333 0 -226.833 48.667 -298.5 146
s-107.5 229.333 -107.5 396v21zM177.998 521c0 -149.333 29.501 -267.999 88.501 -355.999s145.833 -132 260.5 -132c94 0 172.167 21.333 234.5 64s107.5 99.667 135.5 171v507c-26 77.333 -68 142.166 -126 194.499s-138.667 78.5 -242 78.5
c-114.667 0 -201.834 -46.833 -261.501 -140.5s-89.5 -215.5 -89.5 -365.5v-21zM1219 1453l-49 -186h-50l45 182v109h54v-105z" />
    <glyph glyph-name="Dcroat" unicode="&#x110;" horiz-adv-x="1370" 
d="M230 0v713.001h-140v54h140v689h403c167.333 0 309.333 -60 426 -180s175 -273 175 -459v-178c0 -186.667 -58.333 -339.834 -175 -459.501s-258.667 -179.5 -426 -179.5h-403zM677 713.001l-393 -0.00195312v-659h349c151.333 0 280.333 55.333 387 166
s160 250.334 160 419.001v181c0 166.667 -53.333 305.334 -160 416.001s-235.667 166 -387 166h-349v-635h393v-54z" />
    <glyph glyph-name="dcroat" unicode="&#x111;" horiz-adv-x="1151" 
d="M1111 1281h-160.002v-1281h-52l-2 168c-36 -58 -85.5 -104 -148.5 -138s-136.5 -51 -220.5 -51c-127.333 0 -226.833 48.667 -298.5 146s-107.5 229.333 -107.5 396v21c0 171.333 36 307.5 108 408.5s172 151.5 300 151.5c84.667 0 157.834 -19 219.501 -57
s110.834 -90 147.501 -156v392h-373v54h373v225h54v-225h160v-54zM177.998 521c0 -149.333 29.501 -267.999 88.501 -355.999s145.833 -132 260.5 -132c94 0 172.167 21.333 234.5 64s107.5 99.667 135.5 171v507c-26 77.333 -68 142.166 -126 194.499
s-138.667 78.5 -242 78.5c-114.667 0 -201.834 -46.833 -261.501 -140.5s-89.5 -215.5 -89.5 -365.5v-21z" />
    <glyph glyph-name="Emacron" unicode="&#x112;" horiz-adv-x="1166" 
d="M984 732h-730v-678h832v-54h-886v1456h886v-54h-832v-616h730v-54zM925 1733h-627v53h627v-53z" />
    <glyph glyph-name="emacron" unicode="&#x113;" horiz-adv-x="1032" 
d="M541 -21c-123.333 0 -229.833 49.832 -319.5 149.499s-134.5 223.5 -134.5 371.5v64c0 155.333 43.333 283.833 130 385.5s193.667 152.5 321 152.5c122 0 221.5 -40 298.5 -120s115.5 -187.333 115.5 -322v-83h-811v-13v-64c0 -130.667 38.333 -241.167 115 -331.5
s171.667 -135.5 285 -135.5c80.667 0 148.167 11 202.5 33s100.833 55 139.5 99l29 -42c-42.667 -47.333 -94.5 -83.166 -155.5 -107.499s-132.833 -36.5 -215.5 -36.5zM538 1048c-107.333 0 -196.667 -39.168 -268 -117.501s-111.666 -176.166 -120.999 -293.499l3 -6h746
v33c0 110 -33.333 201.5 -100 274.5s-153.334 109.5 -260.001 109.5zM872.999 1412h-627v53h627v-53z" />
    <glyph glyph-name="Ebreve" unicode="&#x114;" horiz-adv-x="1166" 
d="M984 732h-730v-678h832v-54h-886v1456h886v-54h-832v-616h730v-54zM888 1839l1.99902 -6.00098c2.66699 -71.333 -20.666 -129.5 -69.999 -174.5s-116.666 -67.5 -201.999 -67.5c-86 0 -153.833 22.5 -203.5 67.5s-72.834 103.167 -69.501 174.5l2 6h46
c0 -57.333 18 -103.666 54 -138.999s93 -53 171 -53c74.667 0 130.667 18 168 54s56 82 56 138h46z" />
    <glyph glyph-name="ebreve" unicode="&#x115;" horiz-adv-x="1032" 
d="M541 -21c-123.333 0 -229.833 49.832 -319.5 149.499s-134.5 223.5 -134.5 371.5v64c0 155.333 43.333 283.833 130 385.5s193.667 152.5 321 152.5c122 0 221.5 -40 298.5 -120s115.5 -187.333 115.5 -322v-83h-811v-13v-64c0 -130.667 38.333 -241.167 115 -331.5
s171.667 -135.5 285 -135.5c80.667 0 148.167 11 202.5 33s100.833 55 139.5 99l29 -42c-42.667 -47.333 -94.5 -83.166 -155.5 -107.499s-132.833 -36.5 -215.5 -36.5zM538 1048c-107.333 0 -196.667 -39.168 -268 -117.501s-111.666 -176.166 -120.999 -293.499l3 -6h746
v33c0 110 -33.333 201.5 -100 274.5s-153.334 109.5 -260.001 109.5zM835.999 1518l1.99902 -6.00098c2.66699 -71.333 -20.666 -129.5 -69.999 -174.5s-116.666 -67.5 -201.999 -67.5c-86 0 -153.833 22.5 -203.5 67.5s-72.834 103.167 -69.501 174.5l2 6h46
c0 -57.333 18 -103.666 54 -138.999s93 -53 171 -53c74.667 0 130.667 18 168 54s56 82 56 138h46z" />
    <glyph glyph-name="Edotaccent" unicode="&#x116;" horiz-adv-x="1166" 
d="M984 732h-730v-678h832v-54h-886v1456h886v-54h-832v-616h730v-54zM665 1667h-95v138h95v-138z" />
    <glyph glyph-name="edotaccent" unicode="&#x117;" horiz-adv-x="1032" 
d="M541 -21c-123.333 0 -229.833 49.832 -319.5 149.499s-134.5 223.5 -134.5 371.5v64c0 155.333 43.333 283.833 130 385.5s193.667 152.5 321 152.5c122 0 221.5 -40 298.5 -120s115.5 -187.333 115.5 -322v-83h-811v-13v-64c0 -130.667 38.333 -241.167 115 -331.5
s171.667 -135.5 285 -135.5c80.667 0 148.167 11 202.5 33s100.833 55 139.5 99l29 -42c-42.667 -47.333 -94.5 -83.166 -155.5 -107.499s-132.833 -36.5 -215.5 -36.5zM538 1048c-107.333 0 -196.667 -39.168 -268 -117.501s-111.666 -176.166 -120.999 -293.499l3 -6h746
v33c0 110 -33.333 201.5 -100 274.5s-153.334 109.5 -260.001 109.5zM612.999 1346h-95v138h95v-138z" />
    <glyph glyph-name="Eogonek" unicode="&#x118;" horiz-adv-x="1166" 
d="M984 732h-730v-678h832v-54h-886v1456h886v-54h-832v-616h730v-54zM653 0c-50.667 -46 -88.002 -84.834 -112.002 -116.501s-36 -67.167 -36 -106.5c0 -15.333 5.33301 -32.5 16 -51.5s33.334 -28.5 68.001 -28.5c23.333 0 43.333 3.5 60 10.5s33.334 16.167 50.001 27.5
l16 -48c-16 -12 -34.167 -22.333 -54.5 -31s-44.166 -13 -71.499 -13c-40.667 0 -73.834 11.833 -99.501 35.5s-38.5 56.5 -38.5 98.5c0 40.667 14 81.834 42 123.501s64 81.5 108 119.5z" />
    <glyph glyph-name="eogonek" unicode="&#x119;" horiz-adv-x="1032" 
d="M541 -21c-123.333 0 -229.833 49.832 -319.5 149.499s-134.5 223.5 -134.5 371.5v64c0 155.333 43.333 283.833 130 385.5s193.667 152.5 321 152.5c122 0 221.5 -40 298.5 -120s115.5 -187.333 115.5 -322v-83h-811v-13v-64c0 -130.667 38.333 -241.167 115 -331.5
s171.667 -135.5 285 -135.5c80.667 0 148.167 11 202.5 33s100.833 55 139.5 99l29 -42c-42.667 -47.333 -94.5 -83.166 -155.5 -107.499s-132.833 -36.5 -215.5 -36.5zM538 1048c-107.333 0 -196.667 -39.168 -268 -117.501s-111.666 -176.166 -120.999 -293.499l3 -6h746
v33c0 110 -33.333 201.5 -100 274.5s-153.334 109.5 -260.001 109.5zM821.999 57.998c-50.667 -46 -88.002 -84.834 -112.002 -116.501s-36 -67.167 -36 -106.5c0 -15.333 5.33301 -32.5 16 -51.5s33.334 -28.5 68.001 -28.5c23.333 0 43.333 3.5 60 10.5
s33.334 16.167 50.001 27.5l16 -48c-16 -12 -34.167 -22.333 -54.5 -31s-44.166 -13 -71.499 -13c-40.667 0 -73.834 11.833 -99.501 35.5s-38.5 56.5 -38.5 98.5c0 40.667 14 81.834 42 123.501s64 81.5 108 119.5z" />
    <glyph glyph-name="Ecaron" unicode="&#x11a;" horiz-adv-x="1166" 
d="M984 732h-730v-678h832v-54h-886v1456h886v-54h-832v-616h730v-54zM618 1640l184 187h67v-16l-212 -207h-79l-214 209v14h71z" />
    <glyph glyph-name="ecaron" unicode="&#x11b;" horiz-adv-x="1032" 
d="M541 -21c-123.333 0 -229.833 49.832 -319.5 149.499s-134.5 223.5 -134.5 371.5v64c0 155.333 43.333 283.833 130 385.5s193.667 152.5 321 152.5c122 0 221.5 -40 298.5 -120s115.5 -187.333 115.5 -322v-83h-811v-13v-64c0 -130.667 38.333 -241.167 115 -331.5
s171.667 -135.5 285 -135.5c80.667 0 148.167 11 202.5 33s100.833 55 139.5 99l29 -42c-42.667 -47.333 -94.5 -83.166 -155.5 -107.499s-132.833 -36.5 -215.5 -36.5zM538 1048c-107.333 0 -196.667 -39.168 -268 -117.501s-111.666 -176.166 -120.999 -293.499l3 -6h746
v33c0 110 -33.333 201.5 -100 274.5s-153.334 109.5 -260.001 109.5zM565.999 1319l184 187h67v-16l-212 -207h-79l-214 209v14h71z" />
    <glyph glyph-name="Gcircumflex" unicode="&#x11c;" horiz-adv-x="1406" 
d="M1226 156c-30.667 -42.667 -89.4971 -82.833 -176.497 -120.5s-193.833 -56.5 -320.5 -56.5c-166.667 0 -301.834 59.333 -405.501 178s-155.5 273 -155.5 463v238c0 182.667 50.333 331.5 151 446.5s231.667 172.5 393 172.5c154 0 276.167 -39.833 366.5 -119.5
s136.5 -182.5 138.5 -308.5l-2 -6h-45c-5.33301 112.667 -46.833 204.167 -124.5 274.5s-188.834 105.5 -333.501 105.5c-147.333 0 -265.833 -52.5 -355.5 -157.5s-134.5 -240.167 -134.5 -405.5v-240c0 -173.333 46.333 -314.5 139 -423.5s215.334 -163.5 368.001 -163.5
c107.333 0 201.166 15.667 281.499 47s134.166 65 161.499 101v424h-445v55h499v-504zM923.003 1635v-13h-70l-185 186l-183 -186h-66v17l210 206h80z" />
    <glyph glyph-name="gcircumflex" unicode="&#x11d;" 
d="M121 542c0 171.333 36.001 307.499 108.001 408.499s172 151.5 300 151.5c84 0 157 -19 219 -57s111.333 -90.333 148 -157l8 194h46v-1088c0 -137.333 -36.167 -243.5 -108.5 -318.5s-172.5 -112.5 -300.5 -112.5c-52.667 0 -107.5 5.5 -164.5 16.5
s-106.833 26.167 -149.5 45.5l16 54c48.667 -21.333 95.667 -37.166 141 -47.499s97 -15.5 155 -15.5c116.667 0 205.167 32.5 265.5 97.5s90.5 158.5 90.5 280.5v172c-36.667 -57.333 -86.334 -102.833 -149.001 -136.5s-135.667 -50.5 -219 -50.5
c-127.333 0 -226.833 48.667 -298.5 146s-107.5 229.333 -107.5 396v21zM176.001 520.999c0 -149.333 29.6689 -268.001 89.002 -356.001s146.333 -132 261 -132c94 0 172 21.167 234 63.5s107 98.833 135 169.5v512c-26.667 76.667 -68.834 140.834 -126.501 192.501
s-137.834 77.5 -240.501 77.5c-114.667 0 -202 -46.833 -262 -140.5s-90 -215.5 -90 -365.5v-21zM821.003 1292v-13h-70l-185 186l-183 -186h-66v17l210 206h80z" />
    <glyph glyph-name="Gbreve" unicode="&#x11e;" horiz-adv-x="1406" 
d="M1226 156c-30.667 -42.667 -89.4971 -82.833 -176.497 -120.5s-193.833 -56.5 -320.5 -56.5c-166.667 0 -301.834 59.333 -405.501 178s-155.5 273 -155.5 463v238c0 182.667 50.333 331.5 151 446.5s231.667 172.5 393 172.5c154 0 276.167 -39.833 366.5 -119.5
s136.5 -182.5 138.5 -308.5l-2 -6h-45c-5.33301 112.667 -46.833 204.167 -124.5 274.5s-188.834 105.5 -333.501 105.5c-147.333 0 -265.833 -52.5 -355.5 -157.5s-134.5 -240.167 -134.5 -405.5v-240c0 -173.333 46.333 -314.5 139 -423.5s215.334 -163.5 368.001 -163.5
c107.333 0 201.166 15.667 281.499 47s134.166 65 161.499 101v424h-445v55h499v-504zM938.003 1860l1.99902 -6.00098c2.66699 -71.333 -20.666 -129.5 -69.999 -174.5s-116.666 -67.5 -201.999 -67.5c-86 0 -153.833 22.5 -203.5 67.5s-72.834 103.167 -69.501 174.5l2 6
h46c0 -57.333 18 -103.666 54 -138.999s93 -53 171 -53c74.667 0 130.667 18 168 54s56 82 56 138h46z" />
    <glyph glyph-name="gbreve" unicode="&#x11f;" 
d="M121 542c0 171.333 36.001 307.499 108.001 408.499s172 151.5 300 151.5c84 0 157 -19 219 -57s111.333 -90.333 148 -157l8 194h46v-1088c0 -137.333 -36.167 -243.5 -108.5 -318.5s-172.5 -112.5 -300.5 -112.5c-52.667 0 -107.5 5.5 -164.5 16.5
s-106.833 26.167 -149.5 45.5l16 54c48.667 -21.333 95.667 -37.166 141 -47.499s97 -15.5 155 -15.5c116.667 0 205.167 32.5 265.5 97.5s90.5 158.5 90.5 280.5v172c-36.667 -57.333 -86.334 -102.833 -149.001 -136.5s-135.667 -50.5 -219 -50.5
c-127.333 0 -226.833 48.667 -298.5 146s-107.5 229.333 -107.5 396v21zM176.001 520.999c0 -149.333 29.6689 -268.001 89.002 -356.001s146.333 -132 261 -132c94 0 172 21.167 234 63.5s107 98.833 135 169.5v512c-26.667 76.667 -68.834 140.834 -126.501 192.501
s-137.834 77.5 -240.501 77.5c-114.667 0 -202 -46.833 -262 -140.5s-90 -215.5 -90 -365.5v-21zM836.003 1517l1.99902 -6.00098c2.66699 -71.333 -20.666 -129.5 -69.999 -174.5s-116.666 -67.5 -201.999 -67.5c-86 0 -153.833 22.5 -203.5 67.5
s-72.834 103.167 -69.501 174.5l2 6h46c0 -57.333 18 -103.666 54 -138.999s93 -53 171 -53c74.667 0 130.667 18 168 54s56 82 56 138h46z" />
    <glyph glyph-name="uni0120" unicode="&#x120;" horiz-adv-x="1406" 
d="M1226 156c-30.667 -42.667 -89.4971 -82.833 -176.497 -120.5s-193.833 -56.5 -320.5 -56.5c-166.667 0 -301.834 59.333 -405.501 178s-155.5 273 -155.5 463v238c0 182.667 50.333 331.5 151 446.5s231.667 172.5 393 172.5c154 0 276.167 -39.833 366.5 -119.5
s136.5 -182.5 138.5 -308.5l-2 -6h-45c-5.33301 112.667 -46.833 204.167 -124.5 274.5s-188.834 105.5 -333.501 105.5c-147.333 0 -265.833 -52.5 -355.5 -157.5s-134.5 -240.167 -134.5 -405.5v-240c0 -173.333 46.333 -314.5 139 -423.5s215.334 -163.5 368.001 -163.5
c107.333 0 201.166 15.667 281.499 47s134.166 65 161.499 101v424h-445v55h499v-504zM715.003 1688h-95v138h95v-138z" />
    <glyph glyph-name="uni0121" unicode="&#x121;" 
d="M121 542c0 171.333 36.001 307.499 108.001 408.499s172 151.5 300 151.5c84 0 157 -19 219 -57s111.333 -90.333 148 -157l8 194h46v-1088c0 -137.333 -36.167 -243.5 -108.5 -318.5s-172.5 -112.5 -300.5 -112.5c-52.667 0 -107.5 5.5 -164.5 16.5
s-106.833 26.167 -149.5 45.5l16 54c48.667 -21.333 95.667 -37.166 141 -47.499s97 -15.5 155 -15.5c116.667 0 205.167 32.5 265.5 97.5s90.5 158.5 90.5 280.5v172c-36.667 -57.333 -86.334 -102.833 -149.001 -136.5s-135.667 -50.5 -219 -50.5
c-127.333 0 -226.833 48.667 -298.5 146s-107.5 229.333 -107.5 396v21zM176.001 520.999c0 -149.333 29.6689 -268.001 89.002 -356.001s146.333 -132 261 -132c94 0 172 21.167 234 63.5s107 98.833 135 169.5v512c-26.667 76.667 -68.834 140.834 -126.501 192.501
s-137.834 77.5 -240.501 77.5c-114.667 0 -202 -46.833 -262 -140.5s-90 -215.5 -90 -365.5v-21zM613.003 1345h-95v138h95v-138z" />
    <glyph glyph-name="Gcommaaccent" unicode="&#x122;" horiz-adv-x="1406" 
d="M1226 156c-30.667 -42.667 -89.4971 -82.833 -176.497 -120.5s-193.833 -56.5 -320.5 -56.5c-166.667 0 -301.834 59.333 -405.501 178s-155.5 273 -155.5 463v238c0 182.667 50.333 331.5 151 446.5s231.667 172.5 393 172.5c154 0 276.167 -39.833 366.5 -119.5
s136.5 -182.5 138.5 -308.5l-2 -6h-45c-5.33301 112.667 -46.833 204.167 -124.5 274.5s-188.834 105.5 -333.501 105.5c-147.333 0 -265.833 -52.5 -355.5 -157.5s-134.5 -240.167 -134.5 -405.5v-240c0 -173.333 46.333 -314.5 139 -423.5s215.334 -163.5 368.001 -163.5
c107.333 0 201.166 15.667 281.499 47s134.166 65 161.499 101v424h-445v55h499v-504zM757.003 -259.999l-49 -186h-50l45 182v109h54v-105z" />
    <glyph glyph-name="gcommaaccent" unicode="&#x123;" 
d="M121 542c0 171.333 36.001 307.499 108.001 408.499s172 151.5 300 151.5c84 0 157 -19 219 -57s111.333 -90.333 148 -157l8 194h46v-1088c0 -137.333 -36.167 -243.5 -108.5 -318.5s-172.5 -112.5 -300.5 -112.5c-52.667 0 -107.5 5.5 -164.5 16.5
s-106.833 26.167 -149.5 45.5l16 54c48.667 -21.333 95.667 -37.166 141 -47.499s97 -15.5 155 -15.5c116.667 0 205.167 32.5 265.5 97.5s90.5 158.5 90.5 280.5v172c-36.667 -57.333 -86.334 -102.833 -149.001 -136.5s-135.667 -50.5 -219 -50.5
c-127.333 0 -226.833 48.667 -298.5 146s-107.5 229.333 -107.5 396v21zM176.001 520.999c0 -149.333 29.6689 -268.001 89.002 -356.001s146.333 -132 261 -132c94 0 172 21.167 234 63.5s107 98.833 135 169.5v512c-26.667 76.667 -68.834 140.834 -126.501 192.501
s-137.834 77.5 -240.501 77.5c-114.667 0 -202 -46.833 -262 -140.5s-90 -215.5 -90 -365.5v-21zM539.003 1402l59 188h50l-55 -184v-132h-54v128z" />
    <glyph glyph-name="Hcircumflex" unicode="&#x124;" horiz-adv-x="1438" 
d="M1238 0h-54v695h-930v-695h-54v1456h54v-707h930v707h54v-1456zM970 1614v-13h-70l-185 186l-183 -186h-66v17l210 206h80z" />
    <glyph glyph-name="hcircumflex" unicode="&#x125;" 
d="M226 854c33.333 78.667 82.332 139.667 146.999 183s143.667 65 237 65c112.667 0 198.167 -35.667 256.5 -107s87.5 -183.666 87.5 -336.999v-658h-55v660c0 142 -26.167 242.167 -78.5 300.5s-122.166 87.5 -209.499 87.5c-116.667 0 -206 -34.833 -268 -104.5
s-101 -158.834 -117 -267.501v-676h-54v1560h54v-706zM726.999 1613v-13h-70l-185 186l-183 -186h-66v17l210 206h80z" />
    <glyph glyph-name="Hbar" unicode="&#x126;" horiz-adv-x="1389" 
d="M1197 1081h155v-53h-155v-1028h-54v695h-930v-695h-54v1028h-139v53h139v375h54v-375h930v375h54v-375zM213 749h930v279h-930v-279z" />
    <glyph glyph-name="hbar" unicode="&#x127;" horiz-adv-x="1151" 
d="M648 1281h-392.001v-427c33.333 78.667 82.333 139.667 147 183s143.667 65 237 65c112.667 0 198.167 -35.667 256.5 -107s87.5 -183.666 87.5 -336.999v-658h-55v660c0 142 -26.167 242.167 -78.5 300.5s-122.166 87.5 -209.499 87.5
c-116.667 0 -206 -34.833 -268 -104.5s-101 -158.834 -117 -267.501v-676h-54v1281h-141v54h141v225h54v-225h392v-54z" />
    <glyph glyph-name="Itilde" unicode="&#x128;" horiz-adv-x="534" 
d="M294 0h-54v1456h54v-1456zM566 1801c0 -54.667 -17 -99.3311 -51 -133.998s-75.667 -52 -125 -52c-50.667 0 -102 20.833 -154 62.5s-96.333 62.5 -133 62.5c-34.667 0 -63.5 -12.333 -86.5 -37s-34.5 -57.334 -34.5 -98.001l-55 10c0 53.333 16.667 96.5 50 129.5
s75.333 49.5 126 49.5c48 0 99 -20.667 153 -62s98.667 -62 134 -62c33.333 0 61.833 13.167 85.5 39.5s35.5 60.166 35.5 101.499z" />
    <glyph glyph-name="itilde" unicode="&#x129;" horiz-adv-x="406" 
d="M235 0h-54v1082h54v-1082zM507 1459c0 -54.667 -17 -99.3311 -51 -133.998s-75.667 -52 -125 -52c-50.667 0 -102 20.833 -154 62.5s-96.333 62.5 -133 62.5c-34.667 0 -63.5 -12.333 -86.5 -37s-34.5 -57.334 -34.5 -98.001l-55 10c0 53.333 16.667 96.5 50 129.5
s75.333 49.5 126 49.5c48 0 99 -20.667 153 -62s98.667 -62 134 -62c33.333 0 61.833 13.167 85.5 39.5s35.5 60.166 35.5 101.499z" />
    <glyph glyph-name="Imacron" unicode="&#x12a;" horiz-adv-x="534" 
d="M294 0h-54v1456h54v-1456zM575 1733h-627v53h627v-53z" />
    <glyph glyph-name="imacron" unicode="&#x12b;" horiz-adv-x="406" 
d="M235 0h-54v1082h54v-1082zM516 1391h-627v53h627v-53z" />
    <glyph glyph-name="Ibreve" unicode="&#x12c;" horiz-adv-x="534" 
d="M294 0h-54v1456h54v-1456zM538 1839l1.99902 -6.00098c2.66699 -71.333 -20.666 -129.5 -69.999 -174.5s-116.666 -67.5 -201.999 -67.5c-86 0 -153.833 22.5 -203.5 67.5s-72.834 103.167 -69.501 174.5l2 6h46c0 -57.333 18 -103.666 54 -138.999s93 -53 171 -53
c74.667 0 130.667 18 168 54s56 82 56 138h46z" />
    <glyph glyph-name="ibreve" unicode="&#x12d;" horiz-adv-x="406" 
d="M235 0h-54v1082h54v-1082zM479 1496l1.99902 -6.00098c2.66699 -71.333 -20.666 -129.5 -69.999 -174.5s-116.666 -67.5 -201.999 -67.5c-86 0 -153.833 22.5 -203.5 67.5s-72.834 103.167 -69.501 174.5l2 6h46c0 -57.333 18 -103.666 54 -138.999s93 -53 171 -53
c74.667 0 130.667 18 168 54s56 82 56 138h46z" />
    <glyph glyph-name="Iogonek" unicode="&#x12e;" horiz-adv-x="534" 
d="M294 0h-54v1456h54v-1456zM285 0c-50.667 -46 -88.002 -84.834 -112.002 -116.501s-36 -67.167 -36 -106.5c0 -15.333 5.33301 -32.5 16 -51.5s33.334 -28.5 68.001 -28.5c23.333 0 43.333 3.5 60 10.5s33.334 16.167 50.001 27.5l16 -48
c-16 -12 -34.167 -22.333 -54.5 -31s-44.166 -13 -71.499 -13c-40.667 0 -73.834 11.833 -99.501 35.5s-38.5 56.5 -38.5 98.5c0 40.667 14 81.834 42 123.501s64 81.5 108 119.5z" />
    <glyph glyph-name="iogonek" unicode="&#x12f;" horiz-adv-x="422" 
d="M239 0h-54v1082h54v-1082zM239 1422h-54v138h54v-138zM229 0c-50.667 -46 -88.002 -84.834 -112.002 -116.501s-36 -67.167 -36 -106.5c0 -15.333 5.33301 -32.5 16 -51.5s33.334 -28.5 68.001 -28.5c23.333 0 43.333 3.5 60 10.5s33.334 16.167 50.001 27.5l16 -48
c-16 -12 -34.167 -22.333 -54.5 -31s-44.166 -13 -71.499 -13c-40.667 0 -73.834 11.833 -99.501 35.5s-38.5 56.5 -38.5 98.5c0 40.667 14 81.834 42 123.501s64 81.5 108 119.5z" />
    <glyph glyph-name="Idotaccent" unicode="&#x130;" horiz-adv-x="534" 
d="M294 0h-54v1456h54v-1456zM314 1667h-95v138h95v-138z" />
    <glyph glyph-name="dotlessi" unicode="&#x131;" horiz-adv-x="406" 
d="M235 0h-54v1082h54v-1082z" />
    <glyph glyph-name="IJ" unicode="&#x132;" horiz-adv-x="1659" 
d="M294 0h-54v1456h54v-1456zM1410 1456h54.001v-1034c0 -135.333 -38.167 -243 -114.5 -323s-174.5 -120 -294.5 -120c-133.333 0 -238.333 35.333 -315 106s-113.334 174 -110.001 310l2 6h46c0 -118.667 32.333 -209.667 97 -273s158 -95 280 -95
c102 0 186.667 35 254 105s101 164.667 101 284v1034z" />
    <glyph glyph-name="ij" unicode="&#x133;" horiz-adv-x="867" 
d="M239 0h-54v1082h54v-1082zM239 1422h-54v138h54v-138zM662 1082v-1171c0 -111.333 -25 -197.166 -75 -257.499s-120 -90.5 -210 -90.5c-19.333 0 -37.666 1.66699 -54.999 5s-36.333 8.33301 -57 15l13 52c12.667 -4 28.167 -8 46.5 -12s35.833 -6 52.5 -6
c73.333 0 130.166 25.667 170.499 77s60.5 123.666 60.5 216.999v1171h54zM656 1426h-54v134h54v-134z" />
    <glyph glyph-name="Jcircumflex" unicode="&#x134;" horiz-adv-x="1125" 
d="M876 1456h54.001v-1034c0 -135.333 -38.167 -243 -114.5 -323s-174.5 -120 -294.5 -120c-133.333 0 -238.333 35.333 -315 106s-113.334 174 -110.001 310l2 6h46c0 -118.667 32.333 -209.667 97 -273s158 -95 280 -95c102 0 186.667 35 254 105s101 164.667 101 284
v1034zM1156 1584v-13h-70l-185 186l-183 -186h-66v17l210 206h80z" />
    <glyph glyph-name="jcircumflex" unicode="&#x135;" horiz-adv-x="422" 
d="M240 1082v-1171c0 -111.333 -25 -197.166 -75 -257.499s-120 -90.5 -210 -90.5c-19.333 0 -37.666 1.66699 -54.999 5s-36.333 8.33301 -57 15l13 52c12.667 -4 28.167 -8 46.5 -12s35.833 -6 52.5 -6c73.333 0 130.166 25.5 170.499 76.5s60.5 123.5 60.5 217.5v1171h54
zM464 1252v-13h-70l-185 186l-183 -186h-66v17l210 206h80z" />
    <glyph glyph-name="Kcommaaccent" unicode="&#x136;" horiz-adv-x="1300" 
d="M477 711h-223v-711h-54v1456h54v-692h238l618 692h64l2 -5l-639 -721l685 -724l-3 -6h-63zM651 -252l-49 -186h-50l45 182v109h54v-105z" />
    <glyph glyph-name="kcommaaccent" unicode="&#x137;" horiz-adv-x="969" 
d="M374 553h-148v-553h-54v1560h54v-953h127l492 475h63l2 -6l-496 -487l534 -584l-2 -5h-63zM564 -250l-49 -186h-50l45 182v109h54v-105z" />
    <glyph glyph-name="kgreenlandic" unicode="&#x138;" horiz-adv-x="1084" 
d="M394 529h-168v-529h-55v1082h55v-500h178l489 500h61l3 -6l-503 -523l565 -547l-2 -6h-63z" />
    <glyph glyph-name="Lacute" unicode="&#x139;" horiz-adv-x="1057" 
d="M255 54h747v-54h-802v1456h55v-1402zM395 1759h78l2 -5l-231 -261h-67l-2 5z" />
    <glyph glyph-name="lacute" unicode="&#x13a;" horiz-adv-x="422" 
d="M239 0h-54v1560h54v-1560zM377 1863h78l2 -5l-231 -261h-67l-2 5z" />
    <glyph glyph-name="Lcommaaccent" unicode="&#x13b;" horiz-adv-x="1057" 
d="M255 54h747v-54h-802v1456h55v-1402zM653 -250l-49 -186h-50l45 182v109h54v-105z" />
    <glyph glyph-name="lcommaaccent" unicode="&#x13c;" horiz-adv-x="422" 
d="M239 0h-54v1560h54v-1560zM243 -250l-49 -186h-50l45 182v109h54v-105z" />
    <glyph glyph-name="Lcaron" unicode="&#x13d;" horiz-adv-x="1057" 
d="M255 54h747v-54h-802v1456h55v-1402zM663 1350l-49 -186h-50l45 182v109h54v-105z" />
    <glyph glyph-name="lcaron" unicode="&#x13e;" horiz-adv-x="572" 
d="M239 0h-54v1560h54v-1560zM512 1453l-49 -186h-50l45 182v109h54v-105z" />
    <glyph glyph-name="Ldot" unicode="&#x13f;" horiz-adv-x="1057" 
d="M255 54h747v-54h-802v1456h55v-1402zM699 687h-95v138h95v-138z" />
    <glyph glyph-name="ldot" unicode="&#x140;" horiz-adv-x="642" 
d="M239 0h-54v1560h54v-1560zM495 726h-95v138h95v-138z" />
    <glyph glyph-name="Lslash" unicode="&#x141;" horiz-adv-x="1061" 
d="M247 791l351 111v-57l-351 -111v-680h747v-54h-802v716l-184 -58v57l184 58v683h55v-665z" />
    <glyph glyph-name="lslash" unicode="&#x142;" horiz-adv-x="505" 
d="M286 850l201 80v-59l-201 -80v-791h-54v769l-215 -85v59l215 85v732h54v-710z" />
    <glyph glyph-name="Nacute" unicode="&#x143;" horiz-adv-x="1449" 
d="M1249 0h-54l-934 1356l-6 -2v-1354h-55v1456h55l934 -1353l6 2v1351h54v-1456zM889 1822h78l2 -5l-231 -261h-67l-2 5z" />
    <glyph glyph-name="nacute" unicode="&#x144;" 
d="M218 1082l6.99902 -222.999c32.667 77.333 80.334 137.166 143.001 179.499s140 63.5 232 63.5c118 0 206.5 -37.167 265.5 -111.5s88.5 -192.166 88.5 -353.499v-637h-54v639c0 150 -26.833 255.667 -80.5 317s-126.5 92 -218.5 92
c-116.667 0 -204.667 -34.833 -264 -104.5s-96.333 -158.834 -111 -267.501v-676h-54v1082h46zM740.999 1500h78l2 -5l-231 -261h-67l-2 5z" />
    <glyph glyph-name="Ncommaaccent" unicode="&#x145;" horiz-adv-x="1449" 
d="M1249 0h-54l-934 1356l-6 -2v-1354h-55v1456h55l934 -1353l6 2v1351h54v-1456zM754 -250l-49 -186h-50l45 182v109h54v-105z" />
    <glyph glyph-name="ncommaaccent" unicode="&#x146;" 
d="M218 1082l6.99902 -222.999c32.667 77.333 80.334 137.166 143.001 179.499s140 63.5 232 63.5c118 0 206.5 -37.167 265.5 -111.5s88.5 -192.166 88.5 -353.499v-637h-54v639c0 150 -26.833 255.667 -80.5 317s-126.5 92 -218.5 92
c-116.667 0 -204.667 -34.833 -264 -104.5s-96.333 -158.834 -111 -267.501v-676h-54v1082h46zM605.999 -249.999l-49 -186h-50l45 182v109h54v-105z" />
    <glyph glyph-name="Ncaron" unicode="&#x147;" horiz-adv-x="1449" 
d="M1249 0h-54l-934 1356l-6 -2v-1354h-55v1456h55l934 -1353l6 2v1351h54v-1456zM725 1640l184 187h67v-16l-212 -207h-79l-214 209v14h71z" />
    <glyph glyph-name="ncaron" unicode="&#x148;" 
d="M218 1082l6.99902 -222.999c32.667 77.333 80.334 137.166 143.001 179.499s140 63.5 232 63.5c118 0 206.5 -37.167 265.5 -111.5s88.5 -192.166 88.5 -353.499v-637h-54v639c0 150 -26.833 255.667 -80.5 317s-126.5 92 -218.5 92
c-116.667 0 -204.667 -34.833 -264 -104.5s-96.333 -158.834 -111 -267.501v-676h-54v1082h46zM576.999 1318l184 187h67v-16l-212 -207h-79l-214 209v14h71z" />
    <glyph glyph-name="napostrophe" unicode="&#x149;" 
d="M218 1082l6.99902 -222.999c32.667 77.333 80.334 137.166 143.001 179.499s140 63.5 232 63.5c118 0 206.5 -37.167 265.5 -111.5s88.5 -192.166 88.5 -353.499v-637h-54v639c0 150 -26.833 255.667 -80.5 317s-126.5 92 -218.5 92
c-116.667 0 -204.667 -34.833 -264 -104.5s-96.333 -158.834 -111 -267.501v-676h-54v1082h46zM95.999 1450l-49 -186h-50l45 182v109h54v-105z" />
    <glyph glyph-name="Eng" unicode="&#x14a;" horiz-adv-x="1450" 
d="M1250 1456v-1545c0 -111.333 -25.167 -197.166 -75.5 -257.499s-120.166 -90.5 -209.499 -90.5c-20 0 -38.667 1.66699 -56 5s-36 8.33301 -56 15l13 52c12 -4.66699 27 -8.83398 45 -12.501s36 -5.5 54 -5.5c73.333 0 130.166 25.667 170.499 77
s60.5 123.666 60.5 216.999v89l-936 1356l-6 -2v-1354h-54v1456h54l936 -1355l6 2v1353h54z" />
    <glyph glyph-name="eng" unicode="&#x14b;" 
d="M218 1082l5.99707 -224.002c32.667 77.333 80.334 137.333 143.001 180s140.334 64 233.001 64c118 0 206.5 -37.167 265.5 -111.5s88.5 -192.166 88.5 -353.499v-726c0 -111.333 -25.167 -197.166 -75.5 -257.499s-120.166 -90.5 -209.499 -90.5
c-24 0 -46.333 1.66699 -67 5s-42.667 8.33301 -66 15l13 52c14 -4.66699 32.333 -9 55 -13s44.334 -6 65.001 -6c73.333 0 130.166 25.833 170.499 77.5s60.5 124.167 60.5 217.5v728c0 150 -26.667 255.667 -80 317s-126.333 92 -219 92c-116 0 -204 -34.333 -264 -103
s-97.667 -157 -113 -265v-680h-54v1082h48z" />
    <glyph glyph-name="Omacron" unicode="&#x14c;" horiz-adv-x="1364" 
d="M1231 619c0 -196.667 -48.667 -352.5 -146 -467.5s-231.333 -172.5 -402 -172.5c-171.333 0 -305.833 57.5 -403.5 172.5s-146.5 270.833 -146.5 467.5v218c0 196 48.5 351.667 145.5 467s231.167 173 402.5 173c170.667 0 305 -57.667 403 -173s147 -271 147 -467v-218z
M1177 839c0 178.667 -43.001 320.667 -129.001 426s-208.333 158 -367 158c-158 0 -279.667 -52.667 -365 -158s-128 -247.333 -128 -426v-220c0 -180 42.833 -322.667 128.5 -428s207.834 -158 366.501 -158s280.667 52.5 366 157.5s128 247.833 128 428.5v220z
M981.999 1754h-627v53h627v-53z" />
    <glyph glyph-name="omacron" unicode="&#x14d;" 
d="M87 562c0 158.667 43.832 288.334 131.499 389.001s201.5 151 341.5 151c140.667 0 254.834 -50.333 342.501 -151s131.5 -230.334 131.5 -389.001v-42c0 -159.333 -43.833 -289.333 -131.5 -390s-201.167 -151 -340.5 -151c-140.667 0 -255 50.333 -343 151
s-132 230.667 -132 390v42zM140.999 520c0 -136 38.001 -251.167 114.001 -345.5s178.333 -141.5 307 -141.5c126.667 0 228 47.333 304 142s114 209.667 114 345v42c0 132.667 -38.333 246.834 -115 342.501s-178.334 143.5 -305.001 143.5
c-127.333 0 -229 -47.833 -305 -143.5s-114 -209.834 -114 -342.501v-42zM888 1411h-627v53h627v-53z" />
    <glyph glyph-name="Obreve" unicode="&#x14e;" horiz-adv-x="1364" 
d="M1231 619c0 -196.667 -48.667 -352.5 -146 -467.5s-231.333 -172.5 -402 -172.5c-171.333 0 -305.833 57.5 -403.5 172.5s-146.5 270.833 -146.5 467.5v218c0 196 48.5 351.667 145.5 467s231.167 173 402.5 173c170.667 0 305 -57.667 403 -173s147 -271 147 -467v-218z
M1177 839c0 178.667 -43.001 320.667 -129.001 426s-208.333 158 -367 158c-158 0 -279.667 -52.667 -365 -158s-128 -247.333 -128 -426v-220c0 -180 42.833 -322.667 128.5 -428s207.834 -158 366.501 -158s280.667 52.5 366 157.5s128 247.833 128 428.5v220z
M944.999 1860l1.99902 -6.00098c2.66699 -71.333 -20.666 -129.5 -69.999 -174.5s-116.666 -67.5 -201.999 -67.5c-86 0 -153.833 22.5 -203.5 67.5s-72.834 103.167 -69.501 174.5l2 6h46c0 -57.333 18 -103.666 54 -138.999s93 -53 171 -53c74.667 0 130.667 18 168 54
s56 82 56 138h46z" />
    <glyph glyph-name="obreve" unicode="&#x14f;" 
d="M87 562c0 158.667 43.832 288.334 131.499 389.001s201.5 151 341.5 151c140.667 0 254.834 -50.333 342.501 -151s131.5 -230.334 131.5 -389.001v-42c0 -159.333 -43.833 -289.333 -131.5 -390s-201.167 -151 -340.5 -151c-140.667 0 -255 50.333 -343 151
s-132 230.667 -132 390v42zM140.999 520c0 -136 38.001 -251.167 114.001 -345.5s178.333 -141.5 307 -141.5c126.667 0 228 47.333 304 142s114 209.667 114 345v42c0 132.667 -38.333 246.834 -115 342.501s-178.334 143.5 -305.001 143.5
c-127.333 0 -229 -47.833 -305 -143.5s-114 -209.834 -114 -342.501v-42zM851 1517l1.99902 -6.00098c2.66699 -71.333 -20.666 -129.5 -69.999 -174.5s-116.666 -67.5 -201.999 -67.5c-86 0 -153.833 22.5 -203.5 67.5s-72.834 103.167 -69.501 174.5l2 6h46
c0 -57.333 18 -103.666 54 -138.999s93 -53 171 -53c74.667 0 130.667 18 168 54s56 82 56 138h46z" />
    <glyph glyph-name="Ohungarumlaut" unicode="&#x150;" horiz-adv-x="1364" 
d="M1231 619c0 -196.667 -48.667 -352.5 -146 -467.5s-231.333 -172.5 -402 -172.5c-171.333 0 -305.833 57.5 -403.5 172.5s-146.5 270.833 -146.5 467.5v218c0 196 48.5 351.667 145.5 467s231.167 173 402.5 173c170.667 0 305 -57.667 403 -173s147 -271 147 -467v-218z
M1177 839c0 178.667 -43.001 320.667 -129.001 426s-208.333 158 -367 158c-158 0 -279.667 -52.667 -365 -158s-128 -247.333 -128 -426v-220c0 -180 42.833 -322.667 128.5 -428s207.834 -158 366.501 -158s280.667 52.5 366 157.5s128 247.833 128 428.5v220zM1012 1888
h72l2 -6l-292 -260h-65l-2 6zM741.999 1888h68l3 -6l-248 -260h-62l-2 5z" />
    <glyph glyph-name="ohungarumlaut" unicode="&#x151;" 
d="M87 562c0 158.667 43.832 288.334 131.499 389.001s201.5 151 341.5 151c140.667 0 254.834 -50.333 342.501 -151s131.5 -230.334 131.5 -389.001v-42c0 -159.333 -43.833 -289.333 -131.5 -390s-201.167 -151 -340.5 -151c-140.667 0 -255 50.333 -343 151
s-132 230.667 -132 390v42zM140.999 520c0 -136 38.001 -251.167 114.001 -345.5s178.333 -141.5 307 -141.5c126.667 0 228 47.333 304 142s114 209.667 114 345v42c0 132.667 -38.333 246.834 -115 342.501s-178.334 143.5 -305.001 143.5
c-127.333 0 -229 -47.833 -305 -143.5s-114 -209.834 -114 -342.501v-42zM918 1545h72l2 -6l-292 -260h-65l-2 6zM648 1545h68l3 -6l-248 -260h-62l-2 5z" />
    <glyph glyph-name="OE" unicode="&#x152;" horiz-adv-x="1873" 
d="M1789 0l-827.998 -0.000976562c-68.667 -6.66699 -128 -11.834 -178 -15.501s-100.667 -5.5 -152 -5.5c-154 0 -279 55.333 -375 166s-144 254.334 -144 431.001v304c0 176.667 47.667 320.334 143 431.001s220 166 374 166c53.333 0 107.166 -2 161.499 -6
s111.166 -9 170.499 -15h828v-54h-832v-616h730v-54h-730v-678h832v-54zM631.002 32.999c48.667 0 96.333 0.832031 143 2.49902s89.667 4.83398 129 9.50098v1366c-40 4 -82.833 7 -128.5 9s-94.167 3 -145.5 3c-140.667 0 -253 -49.667 -337 -149s-126 -230 -126 -392
v-306c0 -160 42.5 -290.5 127.5 -391.5s197.5 -151.5 337.5 -151.5z" />
    <glyph glyph-name="oe" unicode="&#x153;" horiz-adv-x="1921" 
d="M1421 -21c-90.667 0 -174.334 28.6631 -251.001 85.9961s-132.667 134 -168 230c-34.667 -98 -90.167 -175.167 -166.5 -231.5s-165.833 -84.5 -268.5 -84.5c-140.667 0 -255 50.333 -343 151s-132 230.667 -132 390v42c0 158.667 43.833 288.334 131.5 389.001
s201.5 151 341.5 151c104 0 194.333 -28.5 271 -85.5s132.334 -134.833 167.001 -233.5c34 97.333 88.167 174.833 162.5 232.5s158.5 86.5 252.5 86.5c122 0 221.5 -40 298.5 -120s115.5 -187.333 115.5 -322v-83h-794c0 -2 0.166992 -4.66699 0.5 -8
s0.5 -5.66602 0.5 -6.99902v-42c0 -20 -1 -39.667 -3 -59s-4.33301 -39 -7 -59c18.667 -107.333 64.167 -195.666 136.5 -264.999s157.5 -104 255.5 -104c80.667 0 148.167 11 202.5 33s100.833 55 139.5 99l29 -42c-42.667 -47.333 -94.5 -83.166 -155.5 -107.499
s-132.833 -36.5 -215.5 -36.5zM146 519.996c0 -136 37.999 -251.167 113.999 -345.5s178.333 -141.5 307 -141.5c107.333 0 196.833 34.667 268.5 104s117.834 158.333 138.501 267c-2.66699 14.667 -4.5 30 -5.5 46s-1.5 32.667 -1.5 50v64c0 19.333 0.5 37.833 1.5 55.5
s3.16699 34.834 6.5 51.501c-20 108.667 -66.333 198.667 -139 270s-163 107 -271 107c-127.333 0 -229 -47.833 -305 -143.5s-114 -209.834 -114 -342.501v-42zM1036 630.996h742.003v33c0 110 -33.333 201.5 -100 274.5s-153.334 109.5 -260.001 109.5
c-100.667 0 -185.834 -35 -255.501 -105s-113.834 -160 -132.501 -270z" />
    <glyph glyph-name="Racute" unicode="&#x154;" horiz-adv-x="1340" 
d="M249 683v-684h-54v1456h464c153.333 0 271.333 -33.167 354 -99.5s124 -163.166 124 -290.499c0 -82 -26.167 -156.5 -78.5 -223.5s-123.833 -110.5 -214.5 -130.5c104.667 -18 179.667 -56.333 225 -115s68 -133.667 68 -225v-137c0 -45.333 5.5 -86 16.5 -122
s29.167 -65.333 54.5 -88v-25h-53c-24 27.333 -42 61.166 -54 101.499s-18 85.5 -18 135.5v133c0 98.667 -33.833 175.667 -101.5 231s-164.167 83 -289.5 83h-443zM249 737l400 -0.000976562c148.667 0 258.167 31.333 328.5 94s105.5 140.667 105.5 234
c0 108.667 -35.5 191.834 -106.5 249.501s-176.833 86.5 -317.5 86.5h-410v-664zM769 1822h78l2 -5l-231 -261h-67l-2 5z" />
    <glyph glyph-name="racute" unicode="&#x155;" horiz-adv-x="680" 
d="M649 1043l-70 6c-96.667 0 -175.167 -31.167 -235.5 -93.5s-99.5 -144.5 -117.5 -246.5v-709h-54v1082h44l10 -188v-37c30 77.333 74.667 137.5 134 180.5s132.333 64.5 219 64.5c15.333 0 29.5 -1.16699 42.5 -3.5s24.167 -4.83301 33.5 -7.5zM576 1500h78l2 -5
l-231 -261h-67l-2 5z" />
    <glyph glyph-name="Rcommaaccent" unicode="&#x156;" horiz-adv-x="1340" 
d="M249 683v-684h-54v1456h464c153.333 0 271.333 -33.167 354 -99.5s124 -163.166 124 -290.499c0 -82 -26.167 -156.5 -78.5 -223.5s-123.833 -110.5 -214.5 -130.5c104.667 -18 179.667 -56.333 225 -115s68 -133.667 68 -225v-137c0 -45.333 5.5 -86 16.5 -122
s29.167 -65.333 54.5 -88v-25h-53c-24 27.333 -42 61.166 -54 101.499s-18 85.5 -18 135.5v133c0 98.667 -33.833 175.667 -101.5 231s-164.167 83 -289.5 83h-443zM249 737l400 -0.000976562c148.667 0 258.167 31.333 328.5 94s105.5 140.667 105.5 234
c0 108.667 -35.5 191.834 -106.5 249.501s-176.833 86.5 -317.5 86.5h-410v-664zM634 -250.001l-49 -186h-50l45 182v109h54v-105z" />
    <glyph glyph-name="rcommaaccent" unicode="&#x157;" horiz-adv-x="680" 
d="M649 1043l-70 6c-96.667 0 -175.167 -31.167 -235.5 -93.5s-99.5 -144.5 -117.5 -246.5v-709h-54v1082h44l10 -188v-37c30 77.333 74.667 137.5 134 180.5s132.333 64.5 219 64.5c15.333 0 29.5 -1.16699 42.5 -3.5s24.167 -4.83301 33.5 -7.5zM228 -241l-49 -186h-50
l45 182v109h54v-105z" />
    <glyph glyph-name="Rcaron" unicode="&#x158;" horiz-adv-x="1340" 
d="M249 683v-684h-54v1456h464c153.333 0 271.333 -33.167 354 -99.5s124 -163.166 124 -290.499c0 -82 -26.167 -156.5 -78.5 -223.5s-123.833 -110.5 -214.5 -130.5c104.667 -18 179.667 -56.333 225 -115s68 -133.667 68 -225v-137c0 -45.333 5.5 -86 16.5 -122
s29.167 -65.333 54.5 -88v-25h-53c-24 27.333 -42 61.166 -54 101.499s-18 85.5 -18 135.5v133c0 98.667 -33.833 175.667 -101.5 231s-164.167 83 -289.5 83h-443zM249 737l400 -0.000976562c148.667 0 258.167 31.333 328.5 94s105.5 140.667 105.5 234
c0 108.667 -35.5 191.834 -106.5 249.501s-176.833 86.5 -317.5 86.5h-410v-664zM605 1640l184 187h67v-16l-212 -207h-79l-214 209v14h71z" />
    <glyph glyph-name="rcaron" unicode="&#x159;" horiz-adv-x="680" 
d="M649 1043l-70 6c-96.667 0 -175.167 -31.167 -235.5 -93.5s-99.5 -144.5 -117.5 -246.5v-709h-54v1082h44l10 -188v-37c30 77.333 74.667 137.5 134 180.5s132.333 64.5 219 64.5c15.333 0 29.5 -1.16699 42.5 -3.5s24.167 -4.83301 33.5 -7.5zM412 1318l184 187h67v-16
l-212 -207h-79l-214 209v14h71z" />
    <glyph glyph-name="Sacute" unicode="&#x15a;" horiz-adv-x="1223" 
d="M1074 349c0 91.333 -33.5 164.334 -100.5 219.001s-183.167 104.667 -348.5 150c-166 44.667 -287.5 95.5 -364.5 152.5s-115.5 140.167 -115.5 249.5c0 108.667 45.333 195.334 136 260.001s206.334 97 347.001 97c142 0 258 -39.667 348 -119
s133.667 -181.333 131 -306l-2 -6h-46c0 108.667 -40 198.667 -120 270s-183.667 107 -311 107c-132 0 -236.5 -29.5 -313.5 -88.5s-115.5 -129.833 -115.5 -212.5s31.833 -151.334 95.5 -206.001s178.834 -103.334 345.501 -146.001
c161.333 -42.667 283.166 -94.834 365.499 -156.501s123.5 -149.167 123.5 -262.5c0 -115.333 -47 -206.166 -141 -272.499s-211.667 -99.5 -353 -99.5c-146 0 -271.667 34.167 -377 102.5s-156.333 175.833 -153 322.5l2 6h45c0 -132 48.667 -227.833 146 -287.5
s209.666 -89.5 336.999 -89.5c128 0 233.167 29.333 315.5 88s123.5 134.667 123.5 228zM797 1843h78l2 -5l-231 -261h-67l-2 5z" />
    <glyph glyph-name="sacute" unicode="&#x15b;" horiz-adv-x="1019" 
d="M835 265c0 57.333 -24.5 109.501 -73.5 156.501s-134.5 83.833 -256.5 110.5c-128.667 27.333 -221.834 62.5 -279.501 105.5s-86.5 106.833 -86.5 191.5c0 77.333 32.667 142.166 98 194.499s153.333 78.5 264 78.5c119.333 0 213.333 -28 282 -84
s101.334 -129 98.001 -219l-2 -6h-46c0 70.667 -29.833 130.834 -89.5 180.501s-140.5 74.5 -242.5 74.5c-101.333 0 -178 -21.833 -230 -65.5s-78 -94.167 -78 -151.5c0 -56.667 22 -105 66 -145s131.333 -75 262 -105c120.667 -28 212.167 -66.167 274.5 -114.5
s93.5 -115.833 93.5 -202.5c0 -84.667 -34.667 -153.334 -104 -206.001s-161.333 -79 -276 -79c-126 0 -224.833 28.167 -296.5 84.5s-105.167 124.833 -100.5 205.5l2 6h44c5.33301 -85.333 42 -147 110 -185s148.333 -57 241 -57c100 0 179.333 23.333 238 70
s88 100.667 88 162zM671 1500h78l2 -5l-231 -261h-67l-2 5z" />
    <glyph glyph-name="Scircumflex" unicode="&#x15c;" horiz-adv-x="1223" 
d="M1074 349c0 91.333 -33.5 164.334 -100.5 219.001s-183.167 104.667 -348.5 150c-166 44.667 -287.5 95.5 -364.5 152.5s-115.5 140.167 -115.5 249.5c0 108.667 45.333 195.334 136 260.001s206.334 97 347.001 97c142 0 258 -39.667 348 -119
s133.667 -181.333 131 -306l-2 -6h-46c0 108.667 -40 198.667 -120 270s-183.667 107 -311 107c-132 0 -236.5 -29.5 -313.5 -88.5s-115.5 -129.833 -115.5 -212.5s31.833 -151.334 95.5 -206.001s178.834 -103.334 345.501 -146.001
c161.333 -42.667 283.166 -94.834 365.499 -156.501s123.5 -149.167 123.5 -262.5c0 -115.333 -47 -206.166 -141 -272.499s-211.667 -99.5 -353 -99.5c-146 0 -271.667 34.167 -377 102.5s-156.333 175.833 -153 322.5l2 6h45c0 -132 48.667 -227.833 146 -287.5
s209.666 -89.5 336.999 -89.5c128 0 233.167 29.333 315.5 88s123.5 134.667 123.5 228zM888 1635v-13h-70l-185 186l-183 -186h-66v17l210 206h80z" />
    <glyph glyph-name="scircumflex" unicode="&#x15d;" horiz-adv-x="1019" 
d="M835 265c0 57.333 -24.5 109.501 -73.5 156.501s-134.5 83.833 -256.5 110.5c-128.667 27.333 -221.834 62.5 -279.501 105.5s-86.5 106.833 -86.5 191.5c0 77.333 32.667 142.166 98 194.499s153.333 78.5 264 78.5c119.333 0 213.333 -28 282 -84
s101.334 -129 98.001 -219l-2 -6h-46c0 70.667 -29.833 130.834 -89.5 180.501s-140.5 74.5 -242.5 74.5c-101.333 0 -178 -21.833 -230 -65.5s-78 -94.167 -78 -151.5c0 -56.667 22 -105 66 -145s131.333 -75 262 -105c120.667 -28 212.167 -66.167 274.5 -114.5
s93.5 -115.833 93.5 -202.5c0 -84.667 -34.667 -153.334 -104 -206.001s-161.333 -79 -276 -79c-126 0 -224.833 28.167 -296.5 84.5s-105.167 124.833 -100.5 205.5l2 6h44c5.33301 -85.333 42 -147 110 -185s148.333 -57 241 -57c100 0 179.333 23.333 238 70
s88 100.667 88 162zM762 1292v-13h-70l-185 186l-183 -186h-66v17l210 206h80z" />
    <glyph glyph-name="Scedilla" unicode="&#x15e;" horiz-adv-x="1223" 
d="M1074 349c0 91.333 -33.5 164.334 -100.5 219.001s-183.167 104.667 -348.5 150c-166 44.667 -287.5 95.5 -364.5 152.5s-115.5 140.167 -115.5 249.5c0 108.667 45.333 195.334 136 260.001s206.334 97 347.001 97c142 0 258 -39.667 348 -119
s133.667 -181.333 131 -306l-2 -6h-46c0 108.667 -40 198.667 -120 270s-183.667 107 -311 107c-132 0 -236.5 -29.5 -313.5 -88.5s-115.5 -129.833 -115.5 -212.5s31.833 -151.334 95.5 -206.001s178.834 -103.334 345.501 -146.001
c161.333 -42.667 283.166 -94.834 365.499 -156.501s123.5 -149.167 123.5 -262.5c0 -115.333 -47 -206.166 -141 -272.499s-211.667 -99.5 -353 -99.5c-146 0 -271.667 34.167 -377 102.5s-156.333 175.833 -153 322.5l2 6h45c0 -132 48.667 -227.833 146 -287.5
s209.666 -89.5 336.999 -89.5c128 0 233.167 29.333 315.5 88s123.5 134.667 123.5 228zM635 -8.99902l-11 -76c60.667 -4.66699 108.667 -19.834 144 -45.501s53 -66.834 53 -123.501c0 -58 -26.333 -104.167 -79 -138.5s-128 -51.5 -226 -51.5l-7 49
c69.333 0 129.5 12 180.5 36s76.5 59 76.5 105c0 42.667 -15.167 72.334 -45.5 89.001s-84.833 28.334 -163.5 35.001l25 121h53z" />
    <glyph glyph-name="scedilla" unicode="&#x15f;" horiz-adv-x="1019" 
d="M835 265c0 57.333 -24.5 109.501 -73.5 156.501s-134.5 83.833 -256.5 110.5c-128.667 27.333 -221.834 62.5 -279.501 105.5s-86.5 106.833 -86.5 191.5c0 77.333 32.667 142.166 98 194.499s153.333 78.5 264 78.5c119.333 0 213.333 -28 282 -84
s101.334 -129 98.001 -219l-2 -6h-46c0 70.667 -29.833 130.834 -89.5 180.501s-140.5 74.5 -242.5 74.5c-101.333 0 -178 -21.833 -230 -65.5s-78 -94.167 -78 -151.5c0 -56.667 22 -105 66 -145s131.333 -75 262 -105c120.667 -28 212.167 -66.167 274.5 -114.5
s93.5 -115.833 93.5 -202.5c0 -84.667 -34.667 -153.334 -104 -206.001s-161.333 -79 -276 -79c-126 0 -224.833 28.167 -296.5 84.5s-105.167 124.833 -100.5 205.5l2 6h44c5.33301 -85.333 42 -147 110 -185s148.333 -57 241 -57c100 0 179.333 23.333 238 70
s88 100.667 88 162zM509 -3.99902l-11 -76c60.667 -4.66699 108.667 -19.834 144 -45.501s53 -66.834 53 -123.501c0 -58 -26.333 -104.167 -79 -138.5s-128 -51.5 -226 -51.5l-7 49c69.333 0 129.5 12 180.5 36s76.5 59 76.5 105c0 42.667 -15.167 72.334 -45.5 89.001
s-84.833 28.334 -163.5 35.001l25 121h53z" />
    <glyph glyph-name="Scaron" unicode="&#x160;" horiz-adv-x="1223" 
d="M1074 349c0 91.333 -33.5 164.334 -100.5 219.001s-183.167 104.667 -348.5 150c-166 44.667 -287.5 95.5 -364.5 152.5s-115.5 140.167 -115.5 249.5c0 108.667 45.333 195.334 136 260.001s206.334 97 347.001 97c142 0 258 -39.667 348 -119
s133.667 -181.333 131 -306l-2 -6h-46c0 108.667 -40 198.667 -120 270s-183.667 107 -311 107c-132 0 -236.5 -29.5 -313.5 -88.5s-115.5 -129.833 -115.5 -212.5s31.833 -151.334 95.5 -206.001s178.834 -103.334 345.501 -146.001
c161.333 -42.667 283.166 -94.834 365.499 -156.501s123.5 -149.167 123.5 -262.5c0 -115.333 -47 -206.166 -141 -272.499s-211.667 -99.5 -353 -99.5c-146 0 -271.667 34.167 -377 102.5s-156.333 175.833 -153 322.5l2 6h45c0 -132 48.667 -227.833 146 -287.5
s209.666 -89.5 336.999 -89.5c128 0 233.167 29.333 315.5 88s123.5 134.667 123.5 228zM633 1661l184 187h67v-16l-212 -207h-79l-214 209v14h71z" />
    <glyph glyph-name="scaron" unicode="&#x161;" horiz-adv-x="1019" 
d="M835 265c0 57.333 -24.5 109.501 -73.5 156.501s-134.5 83.833 -256.5 110.5c-128.667 27.333 -221.834 62.5 -279.501 105.5s-86.5 106.833 -86.5 191.5c0 77.333 32.667 142.166 98 194.499s153.333 78.5 264 78.5c119.333 0 213.333 -28 282 -84
s101.334 -129 98.001 -219l-2 -6h-46c0 70.667 -29.833 130.834 -89.5 180.501s-140.5 74.5 -242.5 74.5c-101.333 0 -178 -21.833 -230 -65.5s-78 -94.167 -78 -151.5c0 -56.667 22 -105 66 -145s131.333 -75 262 -105c120.667 -28 212.167 -66.167 274.5 -114.5
s93.5 -115.833 93.5 -202.5c0 -84.667 -34.667 -153.334 -104 -206.001s-161.333 -79 -276 -79c-126 0 -224.833 28.167 -296.5 84.5s-105.167 124.833 -100.5 205.5l2 6h44c5.33301 -85.333 42 -147 110 -185s148.333 -57 241 -57c100 0 179.333 23.333 238 70
s88 100.667 88 162zM507 1318l184 187h67v-16l-212 -207h-79l-214 209v14h71z" />
    <glyph glyph-name="Tcommaaccent" unicode="&#x162;" horiz-adv-x="1224" 
d="M1169 1402h-530v-1402h-54v1402h-530v54h1114v-54zM638 -250l-49 -186h-50l45 182v109h54v-105z" />
    <glyph glyph-name="tcommaaccent" unicode="&#x163;" horiz-adv-x="633" 
d="M284 1374l0.000976562 -291.997h266v-55h-266v-748c0 -88.667 15 -151.834 45 -189.501s69.667 -56.5 119 -56.5c18 0 34 0.666992 48 2s33.333 3.66602 58 6.99902l10 -49c-16.667 -5.33301 -34 -9 -52 -11s-38.333 -3 -61 -3c-72.667 0 -127.834 23.667 -165.501 71
s-56.5 123.666 -56.5 228.999v748h-200v55h200v292h55zM476.001 -259.997l-49 -186h-50l45 182v109h54v-105z" />
    <glyph glyph-name="Tcaron" unicode="&#x164;" horiz-adv-x="1224" 
d="M1169 1402h-530v-1402h-54v1402h-530v54h1114v-54zM608 1632l184 187h67v-16l-212 -207h-79l-214 209v14h71z" />
    <glyph glyph-name="tcaron" unicode="&#x165;" horiz-adv-x="673" 
d="M284 1374l0.000976562 -291.997h266v-55h-266v-748c0 -88.667 15 -151.834 45 -189.501s69.667 -56.5 119 -56.5c18 0 34 0.666992 48 2s33.333 3.66602 58 6.99902l10 -49c-16.667 -5.33301 -34 -9 -52 -11s-38.333 -3 -61 -3c-72.667 0 -127.834 23.667 -165.501 71
s-56.5 123.666 -56.5 228.999v748h-200v55h200v292h55zM536.001 1434l-49 -186h-50l45 182v109h54v-105z" />
    <glyph glyph-name="Tbar" unicode="&#x166;" horiz-adv-x="1224" 
d="M888 847h-249v-847h-54v847h-284v54h284v501h-530v54h1114v-54h-530v-501h249v-54z" />
    <glyph glyph-name="tbar" unicode="&#x167;" horiz-adv-x="633" 
d="M284 1374l0.000976562 -291.997h266v-55h-266v-339h335v-54h-335v-355c0 -88.667 15 -151.834 45 -189.501s69.667 -56.5 119 -56.5c18 0 34 0.666992 48 2s33.333 3.66602 58 6.99902l10 -49c-16.667 -5.33301 -34 -9 -52 -11s-38.333 -3 -61 -3
c-72.667 0 -127.834 23.667 -165.501 71s-56.5 123.666 -56.5 228.999v355h-197v54h197v339h-200v55h200v292h55z" />
    <glyph glyph-name="Utilde" unicode="&#x168;" horiz-adv-x="1365" 
d="M1180 1456v-987c0 -158.667 -46 -280 -138 -364s-211.667 -126 -359 -126c-148.667 0 -268.834 42.167 -360.501 126.5s-137.5 205.5 -137.5 363.5v987h54v-987c0 -136.667 41.333 -243.5 124 -320.5s189.334 -115.5 320.001 -115.5c130 0 236.333 38.5 319 115.5
s124 183.833 124 320.5v987h54zM994 1801c0 -54.667 -17 -99.3311 -51 -133.998s-75.667 -52 -125 -52c-50.667 0 -102 20.833 -154 62.5s-96.333 62.5 -133 62.5c-34.667 0 -63.5 -12.333 -86.5 -37s-34.5 -57.334 -34.5 -98.001l-55 10c0 53.333 16.667 96.5 50 129.5
s75.333 49.5 126 49.5c48 0 99 -20.667 153 -62s98.667 -62 134 -62c33.333 0 61.833 13.167 85.5 39.5s35.5 60.166 35.5 101.499z" />
    <glyph glyph-name="utilde" unicode="&#x169;" 
d="M899 194c-34 -68.667 -82.5 -121.666 -145.5 -158.999s-139.5 -56 -229.5 -56c-111.333 0 -198.5 39.5 -261.5 118.5s-94.5 201.5 -94.5 367.5v617h54v-619c0 -146.667 27 -255 81 -325s127 -105 219 -105c112.667 0 199.167 27.667 259.5 83
s98.833 128.666 115.5 219.999v746h55v-1082h-45zM877 1459c0 -54.667 -17 -99.3311 -51 -133.998s-75.667 -52 -125 -52c-50.667 0 -102 20.833 -154 62.5s-96.333 62.5 -133 62.5c-34.667 0 -63.5 -12.333 -86.5 -37s-34.5 -57.334 -34.5 -98.001l-55 10
c0 53.333 16.667 96.5 50 129.5s75.333 49.5 126 49.5c48 0 99 -20.667 153 -62s98.667 -62 134 -62c33.333 0 61.833 13.167 85.5 39.5s35.5 60.166 35.5 101.499z" />
    <glyph glyph-name="Umacron" unicode="&#x16a;" horiz-adv-x="1365" 
d="M1180 1456v-987c0 -158.667 -46 -280 -138 -364s-211.667 -126 -359 -126c-148.667 0 -268.834 42.167 -360.501 126.5s-137.5 205.5 -137.5 363.5v987h54v-987c0 -136.667 41.333 -243.5 124 -320.5s189.334 -115.5 320.001 -115.5c130 0 236.333 38.5 319 115.5
s124 183.833 124 320.5v987h54zM1003 1733h-627v53h627v-53z" />
    <glyph glyph-name="umacron" unicode="&#x16b;" 
d="M899 194c-34 -68.667 -82.5 -121.666 -145.5 -158.999s-139.5 -56 -229.5 -56c-111.333 0 -198.5 39.5 -261.5 118.5s-94.5 201.5 -94.5 367.5v617h54v-619c0 -146.667 27 -255 81 -325s127 -105 219 -105c112.667 0 199.167 27.667 259.5 83
s98.833 128.666 115.5 219.999v746h55v-1082h-45zM886 1391h-627v53h627v-53z" />
    <glyph glyph-name="Ubreve" unicode="&#x16c;" horiz-adv-x="1365" 
d="M1180 1456v-987c0 -158.667 -46 -280 -138 -364s-211.667 -126 -359 -126c-148.667 0 -268.834 42.167 -360.501 126.5s-137.5 205.5 -137.5 363.5v987h54v-987c0 -136.667 41.333 -243.5 124 -320.5s189.334 -115.5 320.001 -115.5c130 0 236.333 38.5 319 115.5
s124 183.833 124 320.5v987h54zM966 1839l1.99902 -6.00098c2.66699 -71.333 -20.666 -129.5 -69.999 -174.5s-116.666 -67.5 -201.999 -67.5c-86 0 -153.833 22.5 -203.5 67.5s-72.834 103.167 -69.501 174.5l2 6h46c0 -57.333 18 -103.666 54 -138.999s93 -53 171 -53
c74.667 0 130.667 18 168 54s56 82 56 138h46z" />
    <glyph glyph-name="ubreve" unicode="&#x16d;" 
d="M899 194c-34 -68.667 -82.5 -121.666 -145.5 -158.999s-139.5 -56 -229.5 -56c-111.333 0 -198.5 39.5 -261.5 118.5s-94.5 201.5 -94.5 367.5v617h54v-619c0 -146.667 27 -255 81 -325s127 -105 219 -105c112.667 0 199.167 27.667 259.5 83
s98.833 128.666 115.5 219.999v746h55v-1082h-45zM849 1496l1.99902 -6.00098c2.66699 -71.333 -20.666 -129.5 -69.999 -174.5s-116.666 -67.5 -201.999 -67.5c-86 0 -153.833 22.5 -203.5 67.5s-72.834 103.167 -69.501 174.5l2 6h46c0 -57.333 18 -103.666 54 -138.999
s93 -53 171 -53c74.667 0 130.667 18 168 54s56 82 56 138h46z" />
    <glyph glyph-name="Uring" unicode="&#x16e;" horiz-adv-x="1365" 
d="M1180 1456v-987c0 -158.667 -46 -280 -138 -364s-211.667 -126 -359 -126c-148.667 0 -268.834 42.167 -360.501 126.5s-137.5 205.5 -137.5 363.5v987h54v-987c0 -136.667 41.333 -243.5 124 -320.5s189.334 -115.5 320.001 -115.5c130 0 236.333 38.5 319 115.5
s124 183.833 124 320.5v987h54zM559 1726c0 37.333 13.333 69.833 40 97.5s58.667 41.5 96 41.5c36 0 67.167 -13.667 93.5 -41s39.5 -60 39.5 -98s-13 -70 -39 -96s-57.333 -39 -94 -39c-37.333 0 -69.333 13 -96 39s-40 58 -40 96zM616 1726
c0 -22.667 7.66699 -41.5 23 -56.5s34 -22.5 56 -22.5c21.333 0 39.333 7.33301 54 22s22 33.667 22 57s-7.33301 42.833 -22 58.5s-32.667 23.5 -54 23.5c-22 0 -40.667 -7.83301 -56 -23.5s-23 -35.167 -23 -58.5z" />
    <glyph glyph-name="uring" unicode="&#x16f;" 
d="M899 194c-34 -68.667 -82.5 -121.666 -145.5 -158.999s-139.5 -56 -229.5 -56c-111.333 0 -198.5 39.5 -261.5 118.5s-94.5 201.5 -94.5 367.5v617h54v-619c0 -146.667 27 -255 81 -325s127 -105 219 -105c112.667 0 199.167 27.667 259.5 83
s98.833 128.666 115.5 219.999v746h55v-1082h-45zM442 1383c0 37.333 13.333 69.833 40 97.5s58.667 41.5 96 41.5c36 0 67.167 -13.667 93.5 -41s39.5 -60 39.5 -98s-13 -70 -39 -96s-57.333 -39 -94 -39c-37.333 0 -69.333 13 -96 39s-40 58 -40 96zM499 1383
c0 -22.667 7.66699 -41.5 23 -56.5s34 -22.5 56 -22.5c21.333 0 39.333 7.33301 54 22s22 33.667 22 57s-7.33301 42.833 -22 58.5s-32.667 23.5 -54 23.5c-22 0 -40.667 -7.83301 -56 -23.5s-23 -35.167 -23 -58.5z" />
    <glyph glyph-name="Uhungarumlaut" unicode="&#x170;" horiz-adv-x="1365" 
d="M1180 1456v-987c0 -158.667 -46 -280 -138 -364s-211.667 -126 -359 -126c-148.667 0 -268.834 42.167 -360.501 126.5s-137.5 205.5 -137.5 363.5v987h54v-987c0 -136.667 41.333 -243.5 124 -320.5s189.334 -115.5 320.001 -115.5c130 0 236.333 38.5 319 115.5
s124 183.833 124 320.5v987h54zM1033 1867h72l2 -6l-292 -260h-65l-2 6zM763 1867h68l3 -6l-248 -260h-62l-2 5z" />
    <glyph glyph-name="uhungarumlaut" unicode="&#x171;" 
d="M899 194c-34 -68.667 -82.5 -121.666 -145.5 -158.999s-139.5 -56 -229.5 -56c-111.333 0 -198.5 39.5 -261.5 118.5s-94.5 201.5 -94.5 367.5v617h54v-619c0 -146.667 27 -255 81 -325s127 -105 219 -105c112.667 0 199.167 27.667 259.5 83
s98.833 128.666 115.5 219.999v746h55v-1082h-45zM916 1524h72l2 -6l-292 -260h-65l-2 6zM646 1524h68l3 -6l-248 -260h-62l-2 5z" />
    <glyph glyph-name="Uogonek" unicode="&#x172;" horiz-adv-x="1365" 
d="M1180 1456v-987c0 -158.667 -46 -280 -138 -364s-211.667 -126 -359 -126c-148.667 0 -268.834 42.167 -360.501 126.5s-137.5 205.5 -137.5 363.5v987h54v-987c0 -136.667 41.333 -243.5 124 -320.5s189.334 -115.5 320.001 -115.5c130 0 236.333 38.5 319 115.5
s124 183.833 124 320.5v987h54zM752 0c-50.667 -46 -88.002 -84.834 -112.002 -116.501s-36 -67.167 -36 -106.5c0 -15.333 5.33301 -32.5 16 -51.5s33.334 -28.5 68.001 -28.5c23.333 0 43.333 3.5 60 10.5s33.334 16.167 50.001 27.5l16 -48
c-16 -12 -34.167 -22.333 -54.5 -31s-44.166 -13 -71.499 -13c-40.667 0 -73.834 11.833 -99.501 35.5s-38.5 56.5 -38.5 98.5c0 40.667 14 81.834 42 123.501s64 81.5 108 119.5z" />
    <glyph glyph-name="uogonek" unicode="&#x173;" 
d="M899 194c-34 -68.667 -82.5 -121.666 -145.5 -158.999s-139.5 -56 -229.5 -56c-111.333 0 -198.5 39.5 -261.5 118.5s-94.5 201.5 -94.5 367.5v617h54v-619c0 -146.667 27 -255 81 -325s127 -105 219 -105c112.667 0 199.167 27.667 259.5 83
s98.833 128.666 115.5 219.999v746h55v-1082h-45zM941 0.000976562c-50.667 -46 -88.002 -84.834 -112.002 -116.501s-36 -67.167 -36 -106.5c0 -15.333 5.33301 -32.5 16 -51.5s33.334 -28.5 68.001 -28.5c23.333 0 43.333 3.5 60 10.5s33.334 16.167 50.001 27.5l16 -48
c-16 -12 -34.167 -22.333 -54.5 -31s-44.166 -13 -71.499 -13c-40.667 0 -73.834 11.833 -99.501 35.5s-38.5 56.5 -38.5 98.5c0 40.667 14 81.834 42 123.501s64 81.5 108 119.5z" />
    <glyph glyph-name="Wcircumflex" unicode="&#x174;" horiz-adv-x="1855" 
d="M423 330l63 -229h6l63 229l344 1126h60l342 -1126l62 -229h6l65 229l300 1126h59l-392 -1456h-61l-361 1214l-48 145h-6l-46 -145l-364 -1214h-61l-393 1456h60zM1180 1614v-13h-70l-185 186l-183 -186h-66v17l210 206h80z" />
    <glyph glyph-name="wcircumflex" unicode="&#x175;" horiz-adv-x="1550" 
d="M366 313l56 -222l6 -1l71 223l243 769h55l242 -769l70 -223l6 1l58 222l220 769h63l-315 -1082h-54l-267 813l-48 183h-6l-52 -183l-263 -813h-54l-314 1082h62zM1027 1271v-13h-70l-185 186l-183 -186h-66v17l210 206h80z" />
    <glyph glyph-name="Ycircumflex" unicode="&#x176;" horiz-adv-x="1223" 
d="M583 647l26 -50l27 50l483 809h66l-547 -903v-553h-55v553l-547 903h66zM862 1603v-13h-70l-185 186l-183 -186h-66v17l210 206h80z" />
    <glyph glyph-name="ycircumflex" unicode="&#x177;" horiz-adv-x="978" 
d="M458 196l40 -108h6l6 16l374 978h60l-481 -1262c-29.333 -76 -63.5 -137.833 -102.5 -185.5s-101.167 -71.5 -186.5 -71.5c-12.667 0 -26.667 1.16699 -42 3.5s-26.666 4.83301 -33.999 7.5l9 51c7.33301 -2 18.333 -4 33 -6s26 -3 34 -3c61.333 0 109.166 18 143.499 54
s64.833 89.333 91.5 160l65 176l-431 1076h59zM768 1271v-13h-70l-185 186l-183 -186h-66v17l210 206h80z" />
    <glyph glyph-name="Ydieresis" unicode="&#x178;" horiz-adv-x="1223" 
d="M583 647l26 -50l27 50l483 809h66l-547 -903v-553h-55v553l-547 903h66zM919 1662h-136v118h136v-118zM450 1662h-137v118h137v-118z" />
    <glyph glyph-name="Zacute" unicode="&#x179;" horiz-adv-x="1224" 
d="M168 54h962v-54h-1036v44l929 1359h-889v53h964v-38zM772 1822h78l2 -5l-231 -261h-67l-2 5z" />
    <glyph glyph-name="zacute" unicode="&#x17a;" horiz-adv-x="978" 
d="M160 54h770v-54h-843v44l711 983h-680v55h753v-48zM687 1479h78l2 -5l-231 -261h-67l-2 5z" />
    <glyph glyph-name="Zdotaccent" unicode="&#x17b;" horiz-adv-x="1224" 
d="M168 54h962v-54h-1036v44l929 1359h-889v53h964v-38zM655 1667h-95v138h95v-138z" />
    <glyph glyph-name="zdotaccent" unicode="&#x17c;" horiz-adv-x="978" 
d="M160 54h770v-54h-843v44l711 983h-680v55h753v-48zM570 1324h-95v138h95v-138z" />
    <glyph glyph-name="Zcaron" unicode="&#x17d;" horiz-adv-x="1224" 
d="M168 54h962v-54h-1036v44l929 1359h-889v53h964v-38zM608 1640l184 187h67v-16l-212 -207h-79l-214 209v14h71z" />
    <glyph glyph-name="zcaron" unicode="&#x17e;" horiz-adv-x="978" 
d="M160 54h770v-54h-843v44l711 983h-680v55h753v-48zM523 1297l184 187h67v-16l-212 -207h-79l-214 209v14h71z" />
    <glyph glyph-name="longs" unicode="&#x17f;" horiz-adv-x="422" 
d="M174 0v1260c0 102.667 24.667 181.834 74 237.501s118.666 83.5 207.999 83.5c22.667 0 44.834 -1.33301 66.501 -4s42.167 -7 61.5 -13l-8 -52c-20 5.33301 -38.5 9.16602 -55.5 11.499s-38.167 3.5 -63.5 3.5c-72 0 -128.167 -23.5 -168.5 -70.5
s-60.5 -112.5 -60.5 -196.5v-1260h-54z" />
    <glyph glyph-name="florin" unicode="&#x192;" horiz-adv-x="644" 
d="M593 1027l-286.002 -0.000976562v-1116c0 -111.333 -25 -197.166 -75 -257.499s-120 -90.5 -210 -90.5c-19.333 0 -37.666 1.66699 -54.999 5s-36.333 8.33301 -57 15l13 52c12.667 -4 28.167 -8 46.5 -12s35.833 -6 52.5 -6c73.333 0 130.166 25.5 170.499 76.5
s60.5 123.5 60.5 217.5v1116h-188v55h188v178c0 102 24.833 181 74.5 237s119.167 84 208.5 84c22 0 43.833 -1.33301 65.5 -4s42.5 -7 62.5 -13l-8 -52c-21.333 5.33301 -40.166 9.16602 -56.499 11.499s-37.166 3.5 -62.499 3.5c-72 0 -128.333 -23.667 -169 -71
s-61 -112.666 -61 -195.999v-178h286v-55z" />
    <glyph glyph-name="Ohorn" unicode="&#x1a0;" horiz-adv-x="1451" 
d="M1262 619c0 -196.667 -48.6699 -352.5 -146.003 -467.5s-231.333 -172.5 -402 -172.5c-171.333 0 -305.833 57.5 -403.5 172.5s-146.5 270.833 -146.5 467.5v218c0 196 48.5 351.667 145.5 467s231.167 173 402.5 173c100.667 0 189.334 -20.667 266.001 -62
s138.334 -100.333 185.001 -177c102 3.33301 179.5 36 232.5 98s79.5 150.333 79.5 265h47l3 -5c1.33301 -124 -27.167 -221.333 -85.5 -292s-141.166 -110 -248.499 -118c22.667 -49.333 40.167 -103.333 52.5 -162s18.5 -121 18.5 -187v-218zM1208 839
c0 178.667 -43.001 320.667 -129.001 426s-208.333 158 -367 158c-158 0 -279.667 -52.667 -365 -158s-128 -247.333 -128 -426v-220c0 -180 42.833 -322.667 128.5 -428s207.834 -158 366.501 -158s280.667 52.5 366 157.5s128 247.833 128 428.5v220z" />
    <glyph glyph-name="ohorn" unicode="&#x1a1;" horiz-adv-x="1122" 
d="M87 562c0 158.667 43.835 288.334 131.502 389.001s201.5 151 341.5 151c68.667 0 132 -13 190 -39s108.333 -62.667 151 -110c91.333 0.666992 161.166 27.167 209.499 79.5s72.5 126.833 72.5 223.5h48l2 -5c2 -104 -22.667 -186.333 -74 -247s-124 -95 -218 -103
c29.333 -46 52.166 -97.833 68.499 -155.5s24.5 -118.834 24.5 -183.501v-42c0 -159.333 -43.833 -289.333 -131.5 -390s-201.167 -151 -340.5 -151c-140.667 0 -255 50.333 -343 151s-132 230.667 -132 390v42zM141.002 520c0 -136 38.001 -251.167 114.001 -345.5
s178.333 -141.5 307 -141.5c126.667 0 228 47.333 304 142s114 209.667 114 345v42c0 132.667 -38.333 246.834 -115 342.501s-178.334 143.5 -305.001 143.5c-127.333 0 -229 -47.833 -305 -143.5s-114 -209.834 -114 -342.501v-42z" />
    <glyph glyph-name="Uhorn" unicode="&#x1af;" horiz-adv-x="1365" 
d="M1580 1621l2.99902 -5.99902c2 -132 -31.667 -233.333 -101 -304s-166.666 -104.334 -291.999 -101.001l-6 2v46c114 0 200.833 31 260.5 93s89.5 152 89.5 270h46zM1180 1456v-987c0 -158.667 -46 -280 -138 -364s-211.667 -126 -359 -126
c-148.667 0 -268.834 42.167 -360.501 126.5s-137.5 205.5 -137.5 363.5v987h54v-987c0 -136.667 41.333 -243.5 124 -320.5s189.334 -115.5 320.001 -115.5c130 0 236.333 38.5 319 115.5s124 183.833 124 320.5v987h54z" />
    <glyph glyph-name="uhorn" unicode="&#x1b0;" 
d="M1270 1270l1.99902 -5c2 -112 -25.167 -200.167 -81.5 -264.5s-135.833 -100.166 -238.5 -107.499v-893h-45l-8 194c-34 -68.667 -82.5 -121.667 -145.5 -159s-139.5 -56 -229.5 -56c-111.333 0 -198.5 39.5 -261.5 118.5s-94.5 201.5 -94.5 367.5v617h54v-619
c0 -146.667 27 -255 81 -325s127 -105 219 -105c112.667 0 199.167 27.667 259.5 83s98.833 128.666 115.5 219.999v746h55v-126l6 -2c84.667 3.33301 149.834 32.5 195.501 87.5s68.5 131.167 68.5 228.5h48z" />
    <glyph glyph-name="uni01F0" unicode="&#x1f0;" horiz-adv-x="422" 
d="M240 1082v-1171c0 -111.333 -25 -197.166 -75 -257.499s-120 -90.5 -210 -90.5c-19.333 0 -37.666 1.66699 -54.999 5s-36.333 8.33301 -57 15l13 52c12.667 -4 28.167 -8 46.5 -12s35.833 -6 52.5 -6c73.333 0 130.166 25.5 170.499 76.5s60.5 123.5 60.5 217.5v1171h54
zM209 1278l184 187h67v-16l-212 -207h-79l-214 209v14h71z" />
    <glyph glyph-name="Aringacute" unicode="&#x1fa;" horiz-adv-x="1223" 
d="M967 435h-712l-162 -435h-59l544 1456h66l545 -1456h-59zM275 489h672l-305 820l-28 82h-6l-27 -82zM761 2080h69l2 -5l-179 -216h-66zM473 1663c0 38.667 13.5 72 40.5 100s59.833 42 98.5 42c37.333 0 69.5 -14 96.5 -42s40.5 -61.333 40.5 -100
s-13.5 -71.334 -40.5 -98.001s-59.167 -40 -96.5 -40c-38.667 0 -71.5 13.333 -98.5 40s-40.5 59.334 -40.5 98.001zM524 1663c0 -25.333 8.5 -46.333 25.5 -63s37.833 -25 62.5 -25c24 0 44.333 8.33301 61 25s25 37.667 25 63c0 26 -8.33301 47.667 -25 65s-37 26 -61 26
c-24.667 0 -45.5 -8.66699 -62.5 -26s-25.5 -39 -25.5 -65z" />
    <glyph glyph-name="aringacute" unicode="&#x1fb;" horiz-adv-x="1081" 
d="M851 200c-37.333 -65.333 -93 -118.499 -167 -159.499s-163.667 -61.5 -269 -61.5c-100.667 0 -179.667 27.5 -237 82.5s-86 129.167 -86 222.5c0 90.667 42.833 166.667 128.5 228s192.834 92 321.501 92h309v158c0 90 -28.833 160.167 -86.5 210.5
s-138.834 75.5 -243.501 75.5c-98 0 -176.833 -23.667 -236.5 -71s-89.5 -108.333 -89.5 -183l-45 2l-2 5c-4 84 28.667 155.167 98 213.5s161 87.5 275 87.5c116 0 209 -29.333 279 -88s105 -143.334 105 -254.001v-542c0 -38 2.16699 -75 6.5 -111s11.5 -71.667 21.5 -107
h-60c-8.66699 47.333 -14.5 82.833 -17.5 106.5s-4.5 49.167 -4.5 76.5v17zM415 32.001c107.333 0 198.167 23.667 272.5 71s128.833 115 163.5 203v243h-306c-112 0 -206.5 -25.833 -283.5 -77.5s-115.5 -115.5 -115.5 -191.5c0 -72.667 24.5 -132.167 73.5 -178.5
s114.167 -69.5 195.5 -69.5zM683.001 1760h69l2 -5l-179 -216h-66zM395.001 1343c0 38.667 13.5 72 40.5 100s59.833 42 98.5 42c37.333 0 69.5 -14 96.5 -42s40.5 -61.333 40.5 -100s-13.5 -71.334 -40.5 -98.001s-59.167 -40 -96.5 -40c-38.667 0 -71.5 13.333 -98.5 40
s-40.5 59.334 -40.5 98.001zM446.001 1343c0 -25.333 8.5 -46.333 25.5 -63s37.833 -25 62.5 -25c24 0 44.333 8.33301 61 25s25 37.667 25 63c0 26 -8.33301 47.667 -25 65s-37 26 -61 26c-24.667 0 -45.5 -8.66699 -62.5 -26s-25.5 -39 -25.5 -65z" />
    <glyph glyph-name="AEacute" unicode="&#x1fc;" horiz-adv-x="1816" 
d="M1768 0h-752l-18 425h-628l-255 -425h-65l881 1456h776v-54h-696l26 -616h588v-54h-586l28 -678h701v-54zM402 478h594l-39 924l-5 1l-57 -105zM1134 1822h78l2 -5l-231 -261h-67l-2 5z" />
    <glyph glyph-name="aeacute" unicode="&#x1fd;" horiz-adv-x="1735" 
d="M1268 -21c-95.333 0 -176.996 21.999 -244.996 65.999s-119.667 105.667 -155 185v-12h1c-29.333 -63.333 -80.333 -119 -153 -167s-162 -72 -268 -72c-112.667 0 -200 27.333 -262 82s-93 129 -93 223c0 104.667 37.167 188.5 111.5 251.5s180.5 94.5 318.5 94.5h290v90
c0 105.333 -24.333 186.333 -73 243s-121.667 85 -219 85c-108 0 -192.833 -26 -254.5 -78s-92.5 -118.333 -92.5 -199l-45 6l-2 6c-3.33301 92 31.167 168.167 103.5 228.5s169.166 90.5 290.499 90.5c92 0 167.667 -24.5 227 -73.5s96.666 -120.5 111.999 -214.5
c35.333 88.667 87.666 158.834 156.999 210.501s148 77.5 236 77.5c125.333 0 224 -39.5 296 -118.5s108 -186.833 108 -323.5v-83h-787v-13v-64c0 -138.667 33 -251.167 99 -337.5s165.667 -129.5 299 -129.5c68 0 130.167 11.5 186.5 34.5s104.833 55.167 145.5 96.5
l30 -42c-43.333 -44 -92.833 -78.833 -148.5 -104.5s-126.834 -38.5 -213.501 -38.5zM447.004 30.999c86.667 0 165.667 21.833 237 65.5s114.333 86.5 129 128.5v350h-288c-123.333 0 -217 -28 -281 -84s-96 -126.333 -96 -211c0 -78 25.833 -139 77.5 -183
s125.5 -66 221.5 -66zM1253 1048c-106 0 -192.832 -38.832 -260.499 -116.499s-105.834 -175.834 -114.501 -294.501l2 -5h723v32c0 112 -30.5 204 -91.5 276s-147.167 108 -258.5 108zM1022 1501h78l2 -5l-231 -261h-67l-2 5z" />
    <glyph glyph-name="Oslashacute" unicode="&#x1fe;" horiz-adv-x="1364" 
d="M1231 619c0 -196.667 -48.667 -352.5 -146 -467.5s-231.333 -172.5 -402 -172.5c-66 0 -126.5 8.66699 -181.5 26s-104.5 43 -148.5 77l-99 -157h-66l123 193c-58 56 -102.167 126.5 -132.5 211.5s-45.5 181.5 -45.5 289.5v218c0 196 48.5 351.667 145.5 467
s231.167 173 402.5 173c80.667 0 154 -13.833 220 -41.5s123 -67.167 171 -118.5l113 178h66l-142 -223c39.333 -55.333 69.5 -119.833 90.5 -193.5s31.5 -154.167 31.5 -241.5v-218zM188 619c0 -97.333 12.6689 -184.333 38.002 -261s62.666 -138.667 111.999 -186l6 -1
l699 1100c-43.333 48.667 -95.333 86.167 -156 112.5s-129.334 39.5 -206.001 39.5c-158 0 -279.667 -52.667 -365 -158s-128 -247.333 -128 -426v-220zM1177 839c0 76.667 -8.16699 147.333 -24.5 212s-40.166 120 -71.499 166l-6 1l-693 -1091
c39.333 -31.333 84.166 -54.833 134.499 -70.5s105.833 -23.5 166.5 -23.5c158.667 0 280.667 52.5 366 157.5s128 247.833 128 428.5v220zM875.002 1884h78l2 -5l-231 -261h-67l-2 5z" />
    <glyph glyph-name="oslashacute" unicode="&#x1ff;" 
d="M87 562c0 158.667 43.8311 288.332 131.498 388.999s201.5 151 341.5 151c40.667 0 79.834 -4.83301 117.501 -14.5s73.167 -23.167 106.5 -40.5l84 172h63l-99 -203c63.333 -47.333 112.833 -110.333 148.5 -189s53.5 -167 53.5 -265v-42
c0 -159.333 -43.833 -289.333 -131.5 -390s-201.167 -151 -340.5 -151c-38.667 0 -75.667 4 -111 12s-68.666 20 -99.999 36l-83 -172h-63l97 201c-68 45.333 -120.833 108.333 -158.5 189s-56.5 172.334 -56.5 275.001v42zM140.998 519.998
c0 -86.667 16 -166.166 48 -238.499s77 -128.5 135 -168.5h6l429 882c-29.333 16.667 -60.5 29.667 -93.5 39s-68.167 14 -105.5 14c-127.333 0 -229 -47.833 -305 -143.5s-114 -209.834 -114 -342.501v-42zM979.998 561.999c0 80 -15.167 155.333 -45.5 226
s-72.166 126.667 -125.499 168l-6 1l-428 -880c27.333 -14.667 56.666 -25.667 87.999 -33s64.333 -11 99 -11c126.667 0 228 47.333 304 142s114 209.667 114 345v42zM672.998 1499h78l2 -5l-231 -261h-67l-2 5z" />
    <glyph glyph-name="Scommaaccent" unicode="&#x218;" horiz-adv-x="1223" 
d="M1074 349c0 91.333 -33.5 164.334 -100.5 219.001s-183.167 104.667 -348.5 150c-166 44.667 -287.5 95.5 -364.5 152.5s-115.5 140.167 -115.5 249.5c0 108.667 45.333 195.334 136 260.001s206.334 97 347.001 97c142 0 258 -39.667 348 -119
s133.667 -181.333 131 -306l-2 -6h-46c0 108.667 -40 198.667 -120 270s-183.667 107 -311 107c-132 0 -236.5 -29.5 -313.5 -88.5s-115.5 -129.833 -115.5 -212.5s31.833 -151.334 95.5 -206.001s178.834 -103.334 345.501 -146.001
c161.333 -42.667 283.166 -94.834 365.499 -156.501s123.5 -149.167 123.5 -262.5c0 -115.333 -47 -206.166 -141 -272.499s-211.667 -99.5 -353 -99.5c-146 0 -271.667 34.167 -377 102.5s-156.333 175.833 -153 322.5l2 6h45c0 -132 48.667 -227.833 146 -287.5
s209.666 -89.5 336.999 -89.5c128 0 233.167 29.333 315.5 88s123.5 134.667 123.5 228zM662 -269.999l-49 -186h-50l45 182v109h54v-105z" />
    <glyph glyph-name="scommaaccent" unicode="&#x219;" horiz-adv-x="1019" 
d="M835 265c0 57.333 -24.5 109.501 -73.5 156.501s-134.5 83.833 -256.5 110.5c-128.667 27.333 -221.834 62.5 -279.501 105.5s-86.5 106.833 -86.5 191.5c0 77.333 32.667 142.166 98 194.499s153.333 78.5 264 78.5c119.333 0 213.333 -28 282 -84
s101.334 -129 98.001 -219l-2 -6h-46c0 70.667 -29.833 130.834 -89.5 180.501s-140.5 74.5 -242.5 74.5c-101.333 0 -178 -21.833 -230 -65.5s-78 -94.167 -78 -151.5c0 -56.667 22 -105 66 -145s131.333 -75 262 -105c120.667 -28 212.167 -66.167 274.5 -114.5
s93.5 -115.833 93.5 -202.5c0 -84.667 -34.667 -153.334 -104 -206.001s-161.333 -79 -276 -79c-126 0 -224.833 28.167 -296.5 84.5s-105.167 124.833 -100.5 205.5l2 6h44c5.33301 -85.333 42 -147 110 -185s148.333 -57 241 -57c100 0 179.333 23.333 238 70
s88 100.667 88 162zM536 -264.999l-49 -186h-50l45 182v109h54v-105z" />
    <glyph glyph-name="uni0237" unicode="&#x237;" horiz-adv-x="422" 
d="M240 1082v-1171c0 -111.333 -25 -197.166 -75 -257.499s-120 -90.5 -210 -90.5c-19.333 0 -37.666 1.66699 -54.999 5s-36.333 8.33301 -57 15l13 52c12.667 -4 28.167 -8 46.5 -12s35.833 -6 52.5 -6c73.333 0 130.166 25.5 170.499 76.5s60.5 123.5 60.5 217.5v1171h54
z" />
    <glyph glyph-name="uni02BC" unicode="&#x2bc;" horiz-adv-x="320" 
d="M220 1394l-70 -271h-50l66 268v169h54v-166z" />
    <glyph glyph-name="circumflex" unicode="&#x2c6;" horiz-adv-x="796" 
d="M656 1265v-13h-70l-185 186l-183 -186h-66v17l210 206h80z" />
    <glyph glyph-name="caron" unicode="&#x2c7;" horiz-adv-x="764" 
d="M386 1288l184 187h67v-16l-212 -207h-79l-214 209v14h71z" />
    <glyph glyph-name="breve" unicode="&#x2d8;" horiz-adv-x="857" 
d="M696 1456l1.99902 -6.00098c2.66699 -71.333 -20.666 -129.5 -69.999 -174.5s-116.666 -67.5 -201.999 -67.5c-86 0 -153.833 22.5 -203.5 67.5s-72.834 103.167 -69.501 174.5l2 6h46c0 -57.333 18 -103.666 54 -138.999s93 -53 171 -53c74.667 0 130.667 18 168 54
s56 82 56 138h46z" />
    <glyph glyph-name="dotaccent" unicode="&#x2d9;" horiz-adv-x="429" 
d="M250 1318h-95v138h95v-138z" />
    <glyph glyph-name="ring" unicode="&#x2da;" horiz-adv-x="660" 
d="M204 1338c0 37.333 13.333 69.833 40 97.5s58.667 41.5 96 41.5c36 0 67.167 -13.667 93.5 -41s39.5 -60 39.5 -98s-13 -70 -39 -96s-57.333 -39 -94 -39c-37.333 0 -69.333 13 -96 39s-40 58 -40 96zM261 1338c0 -22.667 7.66699 -41.5 23 -56.5s34 -22.5 56 -22.5
c21.333 0 39.333 7.33301 54 22s22 33.667 22 57s-7.33301 42.833 -22 58.5s-32.667 23.5 -54 23.5c-22 0 -40.667 -7.83301 -56 -23.5s-23 -35.167 -23 -58.5z" />
    <glyph glyph-name="ogonek" unicode="&#x2db;" horiz-adv-x="471" 
d="M313 0c-50.667 -46 -88.002 -84.834 -112.002 -116.501s-36 -67.167 -36 -106.5c0 -15.333 5.33301 -32.5 16 -51.5s33.334 -28.5 68.001 -28.5c23.333 0 43.333 3.5 60 10.5s33.334 16.167 50.001 27.5l16 -48c-16 -12 -34.167 -22.333 -54.5 -31
s-44.166 -13 -71.499 -13c-40.667 0 -73.834 11.833 -99.501 35.5s-38.5 56.5 -38.5 98.5c0 40.667 14 81.834 42 123.501s64 81.5 108 119.5z" />
    <glyph glyph-name="tilde" unicode="&#x2dc;" horiz-adv-x="818" 
d="M714 1472c0 -54.667 -17 -99.3311 -51 -133.998s-75.667 -52 -125 -52c-50.667 0 -102 20.833 -154 62.5s-96.333 62.5 -133 62.5c-34.667 0 -63.5 -12.333 -86.5 -37s-34.5 -57.334 -34.5 -98.001l-55 10c0 53.333 16.667 96.5 50 129.5s75.333 49.5 126 49.5
c48 0 99 -20.667 153 -62s98.667 -62 134 -62c33.333 0 61.833 13.167 85.5 39.5s35.5 60.166 35.5 101.499z" />
    <glyph glyph-name="hungarumlaut" unicode="&#x2dd;" horiz-adv-x="783" 
d="M672 1518h72l2 -6l-292 -260h-65l-2 6zM402 1518h68l3 -6l-248 -260h-62l-2 5z" />
    <glyph glyph-name="uni02F3" unicode="&#x2f3;" horiz-adv-x="642" 
d="M186 -219c0 32.667 13.5 60.834 40.5 84.501s59.167 35.5 96.5 35.5c36 0 67.167 -11.833 93.5 -35.5s39.5 -51.834 39.5 -84.501c0 -32 -13 -59.333 -39 -82s-57.333 -34 -94 -34c-37.333 0 -69.5 11.333 -96.5 34s-40.5 50 -40.5 82zM244 -219
c0 -16.667 7.66699 -30.832 23 -42.499s34 -17.5 56 -17.5c21.333 0 39.333 5.66699 54 17s22 25.666 22 42.999c0 18 -7.33301 32.833 -22 44.5s-32.667 17.5 -54 17.5c-22 0 -40.667 -5.83301 -56 -17.5s-23 -26.5 -23 -44.5z" />
    <glyph glyph-name="gravecomb" unicode="&#x300;" horiz-adv-x="0" 
d="M-475 1218h-66l-162 291h75z" />
    <glyph glyph-name="acutecomb" unicode="&#x301;" horiz-adv-x="0" 
d="M-415 1511h67l-159 -291h-61z" />
    <glyph glyph-name="tildecomb" unicode="&#x303;" horiz-adv-x="0" 
d="M-183 1472c0 -54.667 -17 -99.3311 -51 -133.998s-75.667 -52 -125 -52c-50.667 0 -102 20.833 -154 62.5s-96.333 62.5 -133 62.5c-34.667 0 -63.5 -12.333 -86.5 -37s-34.5 -57.334 -34.5 -98.001l-55 10c0 53.333 16.667 96.5 50 129.5s75.333 49.5 126 49.5
c48 0 99 -20.667 153 -62s98.667 -62 134 -62c33.333 0 61.833 13.167 85.5 39.5s35.5 60.166 35.5 101.499z" />
    <glyph glyph-name="hook" unicode="&#x309;" horiz-adv-x="0" 
d="M-598 1227v99.002c67.333 5.33301 115.666 16.5 144.999 33.5s44 43.833 44 80.5c0 38 -23.333 65.833 -70 83.5s-102 26.5 -166 26.5l7 49c84.667 0 153.334 -14.333 206.001 -43s79 -67.334 79 -116.001c0 -50.667 -17.833 -88.834 -53.5 -114.501
s-83.5 -40.5 -143.5 -44.5v-54h-48z" />
    <glyph glyph-name="uni030F" unicode="&#x30f;" horiz-adv-x="0" 
d="M-604 1258l-2 -6h-65l-292 260l2 6h72zM-378 1257l-2 -5h-62l-248 260l3 6h68z" />
    <glyph glyph-name="dotbelow" unicode="&#x323;" horiz-adv-x="0" 
d="M-531 -295h-95v138h95v-138z" />
    <glyph glyph-name="tonos" unicode="&#x384;" horiz-adv-x="514" 
d="M282 1568h106l-146 -263h-53z" />
    <glyph glyph-name="dieresistonos" unicode="&#x385;" horiz-adv-x="928" 
d="M771 1348h-126v108h126v-108zM292 1348h-127v108h127v-108zM466 1657h137l-118 -180h-42z" />
    <glyph glyph-name="Alphatonos" unicode="&#x386;" horiz-adv-x="1223" 
d="M967 435h-712l-162 -435h-59l544 1456h66l545 -1456h-59zM275 489h672l-305 820l-28 82h-6l-27 -82zM245 1567h106l-146 -263h-53z" />
    <glyph glyph-name="anoteleia" unicode="&#x387;" horiz-adv-x="472" 
d="M289 624h-118v152h118v-152z" />
    <glyph glyph-name="Epsilontonos" unicode="&#x388;" horiz-adv-x="1266" 
d="M1084 732h-730v-678h832v-54h-886v1456h886v-54h-832v-616h730v-54zM94 1569h106l-146 -263h-53z" />
    <glyph glyph-name="Etatonos" unicode="&#x389;" horiz-adv-x="1538" 
d="M1338 0h-54v695h-930v-695h-54v1456h54v-707h930v707h54v-1456zM106 1569h106l-146 -263h-53z" />
    <glyph glyph-name="Iotatonos" unicode="&#x38a;" horiz-adv-x="634" 
d="M394 0h-54v1456h54v-1456zM132 1564h106l-146 -263h-53z" />
    <glyph glyph-name="Omicrontonos" unicode="&#x38c;" horiz-adv-x="1384" 
d="M1251 619c0 -196.667 -48.667 -352.5 -146 -467.5s-231.333 -172.5 -402 -172.5c-171.333 0 -305.833 57.5 -403.5 172.5s-146.5 270.833 -146.5 467.5v218c0 196 48.5 351.667 145.5 467s231.167 173 402.5 173c170.667 0 305 -57.667 403 -173s147 -271 147 -467v-218z
M1197 839c0 178.667 -43.001 320.667 -129.001 426s-208.333 158 -367 158c-158 0 -279.667 -52.667 -365 -158s-128 -247.333 -128 -426v-220c0 -180 42.833 -322.667 128.5 -428s207.834 -158 366.501 -158s280.667 52.5 366 157.5s128 247.833 128 428.5v220z
M142.999 1567h106l-146 -263h-53z" />
    <glyph glyph-name="Upsilontonos" unicode="&#x38e;" horiz-adv-x="1323" 
d="M683 647l26 -50l27 50l483 809h66l-547 -903v-553h-55v553l-547 903h66zM-8 1567h106l-146 -263h-53z" />
    <glyph glyph-name="Omegatonos" unicode="&#x38f;" horiz-adv-x="1341" 
d="M781 78c102 51.333 187.334 128.001 256.001 230.001s103 243.333 103 424v119c0 163.333 -42.833 299.5 -128.5 408.5s-197.834 163.5 -336.501 163.5c-139.333 0 -251.333 -54.5 -336 -163.5s-127 -245.167 -127 -408.5v-119c0 -180.667 34.833 -322 104.5 -424
s156.5 -178.667 260.5 -230v-78h-435v54h366c-101.333 58 -185 142.167 -251 252.5s-99 252.166 -99 425.499v117c0 188 47.5 339.667 142.5 455s219.833 173 374.5 173c154 0 279 -57.667 375 -173s144 -267 144 -455v-117c0 -173.333 -32.833 -314.833 -98.5 -424.5
s-148.5 -194.167 -248.5 -253.5h368v-54h-434v78zM203.001 1567h106l-146 -263h-53z" />
    <glyph glyph-name="iotadieresistonos" unicode="&#x390;" horiz-adv-x="565" 
d="M225 1081v-801.998c0 -90 16 -153.5 48 -190.5s77.667 -55.5 137 -55.5c18 0 34 0.666992 48 2s33.667 3.66602 59 6.99902l9 -50c-16 -4.66699 -33.5 -8 -52.5 -10s-39.167 -3 -60.5 -3c-84 0 -145.5 23.167 -184.5 69.5s-58.5 123.166 -58.5 230.499v802h55zM500 1275
h-126v108h126v-108zM21 1275h-127v108h127v-108zM195 1584h137l-118 -180h-42z" />
    <glyph glyph-name="Alpha" unicode="&#x391;" horiz-adv-x="1223" 
d="M967 435h-712l-162 -435h-59l544 1456h66l545 -1456h-59zM275 489h672l-305 820l-28 82h-6l-27 -82z" />
    <glyph glyph-name="Beta" unicode="&#x392;" horiz-adv-x="1235" 
d="M200 0l-0.000976562 1456h383c150.667 0 267.667 -31 351 -93s125 -155.333 125 -280c0 -86.667 -22.333 -159.667 -67 -219s-107.667 -96.333 -189 -111c90.667 -12 167 -51.667 229 -119s93 -145 93 -233c0 -127.333 -41.167 -226 -123.5 -296
s-191.166 -105 -326.499 -105h-475zM253.999 719l-0.000976562 -665.001h421c122.667 0 219.334 30.333 290.001 91s106 145.334 106 254.001c0 89.333 -33.833 165 -101.5 227s-162.5 93 -284.5 93h-431zM253.998 772.999h349c132.667 0 232.667 25.833 300 77.5
s101 130.5 101 236.5c0 104 -35.5 182.5 -106.5 235.5s-175.833 79.5 -314.5 79.5h-329v-629z" />
    <glyph glyph-name="Gamma" unicode="&#x393;" horiz-adv-x="1122" 
d="M1055 1402h-808v-1402h-54v1456h862v-54z" />
    <glyph glyph-name="Delta" unicode="&#x394;" horiz-adv-x="1411" 
d="M674 1456h65l617 -1456h-1298zM140 54h1133l-537 1271l-27 72h-6l-27 -72z" />
    <glyph glyph-name="Delta" unicode="&#x2206;" horiz-adv-x="1411" 
d="M674 1456h65l617 -1456h-1298zM140 54h1133l-537 1271l-27 72h-6l-27 -72z" />
    <glyph glyph-name="Epsilon" unicode="&#x395;" horiz-adv-x="1166" 
d="M984 732h-730v-678h832v-54h-886v1456h886v-54h-832v-616h730v-54z" />
    <glyph glyph-name="Zeta" unicode="&#x396;" horiz-adv-x="1224" 
d="M168 54h962v-54h-1036v44l929 1359h-889v53h964v-38z" />
    <glyph glyph-name="Eta" unicode="&#x397;" horiz-adv-x="1438" 
d="M1238 0h-54v695h-930v-695h-54v1456h54v-707h930v707h54v-1456z" />
    <glyph glyph-name="Theta" unicode="&#x398;" horiz-adv-x="1364" 
d="M971 691h-591v53h591v-53zM1231 619c0 -196.667 -48.667 -352.5 -146 -467.5s-231.333 -172.5 -402 -172.5c-171.333 0 -305.833 57.5 -403.5 172.5s-146.5 270.833 -146.5 467.5v218c0 196 48.5 351.667 145.5 467s231.167 173 402.5 173
c170.667 0 305 -57.667 403 -173s147 -271 147 -467v-218zM1177 839c0 178.667 -43.001 320.667 -129.001 426s-208.333 158 -367 158c-158 0 -279.667 -52.667 -365 -158s-128 -247.333 -128 -426v-220c0 -180 42.833 -322.667 128.5 -428s207.834 -158 366.501 -158
s280.667 52.5 366 157.5s128 247.833 128 428.5v220z" />
    <glyph glyph-name="Iota" unicode="&#x399;" horiz-adv-x="534" 
d="M294 0h-54v1456h54v-1456z" />
    <glyph glyph-name="Kappa" unicode="&#x39a;" horiz-adv-x="1300" 
d="M477 711h-223v-711h-54v1456h54v-692h238l618 692h64l2 -5l-639 -721l685 -724l-3 -6h-63z" />
    <glyph glyph-name="Lambda" unicode="&#x39b;" horiz-adv-x="1313" 
d="M146 0h-59l534 1456h65l535 -1456h-59l-479 1304l-27 84h-6l-27 -84z" />
    <glyph glyph-name="Mu" unicode="&#x39c;" horiz-adv-x="1756" 
d="M277 1456l596 -1370h6l598 1370h79v-1456h-54v1361l-6 2l-598 -1363h-43l-595 1356l-6 -2v-1354h-54v1456h77z" />
    <glyph glyph-name="Nu" unicode="&#x39d;" horiz-adv-x="1449" 
d="M1249 0h-54l-934 1356l-6 -2v-1354h-55v1456h55l934 -1353l6 2v1351h54v-1456z" />
    <glyph glyph-name="Xi" unicode="&#x39e;" 
d="M112 54h905v-54h-905v54zM220 741h681v-54h-681v54zM133 1456h845v-53h-845v53z" />
    <glyph glyph-name="Omicron" unicode="&#x39f;" horiz-adv-x="1364" 
d="M1231 619c0 -196.667 -48.667 -352.5 -146 -467.5s-231.333 -172.5 -402 -172.5c-171.333 0 -305.833 57.5 -403.5 172.5s-146.5 270.833 -146.5 467.5v218c0 196 48.5 351.667 145.5 467s231.167 173 402.5 173c170.667 0 305 -57.667 403 -173s147 -271 147 -467v-218z
M1177 839c0 178.667 -43.001 320.667 -129.001 426s-208.333 158 -367 158c-158 0 -279.667 -52.667 -365 -158s-128 -247.333 -128 -426v-220c0 -180 42.833 -322.667 128.5 -428s207.834 -158 366.501 -158s280.667 52.5 366 157.5s128 247.833 128 428.5v220z" />
    <glyph glyph-name="Pi" unicode="&#x3a0;" horiz-adv-x="1438" 
d="M1238 0h-54v1402h-930v-1402h-54v1456h1038v-1456z" />
    <glyph glyph-name="Rho" unicode="&#x3a1;" horiz-adv-x="1230" 
d="M254 625v-625h-54v1456h455c150.667 0 266.667 -37.833 348 -113.5s122 -176.167 122 -301.5c0 -126.667 -40.5 -227.667 -121.5 -303s-197.167 -113 -348.5 -113h-401zM254 679h401c138 0 241.833 34.333 311.5 103s104.5 154.334 104.5 257.001
c0 105.333 -34.667 192.166 -104 260.499s-173.333 102.5 -312 102.5h-401v-723z" />
    <glyph glyph-name="Sigma" unicode="&#x3a3;" 
d="M656 768l-523 -714h916v-54h-992v44l547 743l-547 625v44h37l2 -3v3h893v-53h-842l-2 -5l511 -583v-47z" />
    <glyph glyph-name="Tau" unicode="&#x3a4;" horiz-adv-x="1224" 
d="M1169 1402h-530v-1402h-54v1402h-530v54h1114v-54z" />
    <glyph glyph-name="Upsilon" unicode="&#x3a5;" horiz-adv-x="1223" 
d="M583 647l26 -50l27 50l483 809h66l-547 -903v-553h-55v553l-547 903h66z" />
    <glyph glyph-name="Phi" unicode="&#x3a6;" horiz-adv-x="1428" 
d="M741 1225c171.333 -4.66699 308.333 -55 411 -151s154 -214.333 154 -355c0 -142 -51.333 -261.5 -154 -358.5s-239.667 -147.5 -411 -151.5v-209h-55v209c-171.333 4.66699 -307.833 55 -409.5 151s-152.5 215 -152.5 357c0 140 50.833 258.333 152.5 355
s238.167 147.667 409.5 153v231h55v-231zM1251 719c0 128 -45.833 234 -137.5 318s-214.167 127 -367.5 129l-5 -2v-894l5 -2c153.333 1.33301 275.833 44.333 367.5 129s137.5 192 137.5 322zM179 717c0 -129.333 45.333 -236 136 -320s212.667 -127 366 -129l5 2v894l-5 2
c-152.667 -2.66699 -274.5 -46.5 -365.5 -131.5s-136.5 -190.833 -136.5 -317.5z" />
    <glyph glyph-name="Chi" unicode="&#x3a7;" horiz-adv-x="1223" 
d="M610 785l471 671h67l-503 -713l524 -743h-67l-492 701l-491 -701h-66l524 743l-504 713h68z" />
    <glyph glyph-name="Psi" unicode="&#x3a8;" horiz-adv-x="1428" 
d="M741 439l6 -3c138 0 251.333 42.833 340 128.5s133 199.5 133 341.5v550h54v-550c0 -163.333 -49.167 -291.833 -147.5 -385.5s-226.833 -141.834 -385.5 -144.501v-376h-55v376c-158.667 4 -286.667 52.667 -384 146s-146 221.333 -146 384v550h55v-550
c0 -140.667 43.667 -253.667 131 -339s200 -128.666 338 -129.999l6 2v1017h55v-1017z" />
    <glyph glyph-name="Omega" unicode="&#x3a9;" horiz-adv-x="1321" 
d="M761 78c102 51.333 187.334 128.001 256.001 230.001s103 243.333 103 424v119c0 163.333 -42.833 299.5 -128.5 408.5s-197.834 163.5 -336.501 163.5c-139.333 0 -251.333 -54.5 -336 -163.5s-127 -245.167 -127 -408.5v-119c0 -180.667 34.833 -322 104.5 -424
s156.5 -178.667 260.5 -230v-78h-435v54h366c-101.333 58 -185 142.167 -251 252.5s-99 252.166 -99 425.499v117c0 188 47.5 339.667 142.5 455s219.833 173 374.5 173c154 0 279 -57.667 375 -173s144 -267 144 -455v-117c0 -173.333 -32.833 -314.833 -98.5 -424.5
s-148.5 -194.167 -248.5 -253.5h368v-54h-434v78z" />
    <glyph glyph-name="Omega" unicode="&#x2126;" horiz-adv-x="1321" 
d="M761 78c102 51.333 187.334 128.001 256.001 230.001s103 243.333 103 424v119c0 163.333 -42.833 299.5 -128.5 408.5s-197.834 163.5 -336.501 163.5c-139.333 0 -251.333 -54.5 -336 -163.5s-127 -245.167 -127 -408.5v-119c0 -180.667 34.833 -322 104.5 -424
s156.5 -178.667 260.5 -230v-78h-435v54h366c-101.333 58 -185 142.167 -251 252.5s-99 252.166 -99 425.499v117c0 188 47.5 339.667 142.5 455s219.833 173 374.5 173c154 0 279 -57.667 375 -173s144 -267 144 -455v-117c0 -173.333 -32.833 -314.833 -98.5 -424.5
s-148.5 -194.167 -248.5 -253.5h368v-54h-434v78z" />
    <glyph glyph-name="Iotadieresis" unicode="&#x3aa;" horiz-adv-x="534" 
d="M294 0h-54v1456h54v-1456zM580 1673h-136v118h136v-118zM111 1673h-137v118h137v-118z" />
    <glyph glyph-name="Upsilondieresis" unicode="&#x3ab;" horiz-adv-x="1223" 
d="M583 647l26 -50l27 50l483 809h66l-547 -903v-553h-55v553l-547 903h66zM919 1662h-136v118h136v-118zM450 1662h-137v118h137v-118z" />
    <glyph glyph-name="alphatonos" unicode="&#x3ac;" horiz-adv-x="1149" 
d="M950 1081v-333v-2c0 -0.666992 0.333008 -1 1 -1v-441c-0.666992 -1.33301 -1 -2.33301 -1 -3v-2v-64c0 -74.667 10.667 -127.167 32 -157.5s51.666 -45.5 90.999 -45.5c10.667 0 19.834 0.666992 27.501 2s20.167 4 37.5 8l11 -49
c-11.333 -5.33301 -22.833 -9 -34.5 -11s-24.5 -3 -38.5 -3c-54.667 0 -96.5 14.833 -125.5 44.5s-46.5 78.5 -52.5 146.5c-36 -58.667 -85.667 -105.167 -149 -139.5s-137 -51.5 -221 -51.5c-127.333 0 -226.833 48.667 -298.5 146s-107.5 229.333 -107.5 396v21
c0 171.333 36 307.5 108 408.5s172 151.5 300 151.5c84.667 0 158 -19.333 220 -58s111.333 -91.667 148 -159l17 196h35zM178 521c0 -149.333 29.5029 -268.001 88.5029 -356.001s145.833 -132 260.5 -132c94 0 172 21.167 234 63.5s107 98.833 135 169.5v512
c-26.667 76.667 -68.834 140.834 -126.501 192.501s-137.834 77.5 -240.501 77.5c-114.667 0 -201.834 -46.833 -261.501 -140.5s-89.5 -215.5 -89.5 -365.5v-21zM652.003 1486h106l-146 -263h-53z" />
    <glyph glyph-name="epsilontonos" unicode="&#x3ad;" horiz-adv-x="1122" 
d="M116 290c0 68.667 20.833 125.334 62.5 170.001s103.834 76 186.501 94c-74 20.667 -130.833 53 -170.5 97s-59.5 94.333 -59.5 151c0 94.667 37 167.667 111 219s175.333 77 304 77c120 0 221 -27.167 303 -81.5s121.333 -124.833 118 -211.5l-2 -6h-44
c0 73.333 -35.833 132.5 -107.5 177.5s-160.834 67.5 -267.501 67.5c-120.667 0 -210.667 -21.833 -270 -65.5s-89 -101.5 -89 -173.5s29.167 -127.5 87.5 -166.5s149.833 -58.5 274.5 -58.5h165v-55h-165c-126.667 0 -222.167 -19.167 -286.5 -57.5
s-96.5 -98.5 -96.5 -180.5c0 -78.667 33 -139.834 99 -183.501s159.667 -65.5 281 -65.5c116 0 210.333 24.5 283 73.5s109 112.167 109 189.5h45l2 -6c3.33301 -100 -39 -177 -127 -231s-192 -81 -312 -81c-129.333 0 -234 27.333 -314 82s-120 129.667 -120 225zM578 1485
h106l-146 -263h-53z" />
    <glyph glyph-name="etatonos" unicode="&#x3ae;" 
d="M218 1082l7.00098 -219c33.333 76 81.166 134.833 143.499 176.5s139.5 62.5 231.5 62.5c118 0 206.5 -37.167 265.5 -111.5s88.5 -192.166 88.5 -353.499v-1053h-54v1055c0 150 -26.667 255.667 -80 317s-126.333 92 -219 92c-113.333 0 -199.833 -33 -259.5 -99
s-98.167 -151 -115.5 -255v-694h-54v554h-2c0 9.33301 0.166992 18.666 0.5 27.999s0.833008 21 1.5 35v465h46zM605.001 1486h106l-146 -263h-53z" />
    <glyph glyph-name="iotatonos" unicode="&#x3af;" horiz-adv-x="565" 
d="M225 1081v-801.998c0 -90 16 -153.5 48 -190.5s77.667 -55.5 137 -55.5c18 0 34 0.666992 48 2s33.667 3.66602 59 6.99902l9 -50c-16 -4.66699 -33.5 -8 -52.5 -10s-39.167 -3 -60.5 -3c-84 0 -145.5 23.167 -184.5 69.5s-58.5 123.166 -58.5 230.499v802h55zM224 1465
h106l-146 -263h-53z" />
    <glyph glyph-name="upsilondieresistonos" unicode="&#x3b0;" 
d="M222 1082l-0.000976562 -596.999c0 -154.667 30.333 -268.667 91 -342s143.667 -110 249 -110c126.667 0 217.334 43.833 272.001 131.5s82 199.5 82 335.5c0 106 -10 207.167 -30 303.5s-47.333 189.166 -82 278.499h66c32 -98 56.5 -188 73.5 -270s25.5 -185 25.5 -309
c0 -161.333 -33 -289 -99 -383s-168 -141 -306 -141c-124 0 -221 41.333 -291 124s-105 210.667 -105 384v595h54zM847.999 1275h-126v108h126v-108zM368.999 1275h-127v108h127v-108zM542.999 1584h137l-118 -180h-42z" />
    <glyph glyph-name="alpha" unicode="&#x3b1;" horiz-adv-x="1149" 
d="M950 1081v-333v-2c0 -0.666992 0.333008 -1 1 -1v-441c-0.666992 -1.33301 -1 -2.33301 -1 -3v-2v-64c0 -74.667 10.667 -127.167 32 -157.5s51.666 -45.5 90.999 -45.5c10.667 0 19.834 0.666992 27.501 2s20.167 4 37.5 8l11 -49
c-11.333 -5.33301 -22.833 -9 -34.5 -11s-24.5 -3 -38.5 -3c-54.667 0 -96.5 14.833 -125.5 44.5s-46.5 78.5 -52.5 146.5c-36 -58.667 -85.667 -105.167 -149 -139.5s-137 -51.5 -221 -51.5c-127.333 0 -226.833 48.667 -298.5 146s-107.5 229.333 -107.5 396v21
c0 171.333 36 307.5 108 408.5s172 151.5 300 151.5c84.667 0 158 -19.333 220 -58s111.333 -91.667 148 -159l17 196h35zM178 521c0 -149.333 29.5029 -268.001 88.5029 -356.001s145.833 -132 260.5 -132c94 0 172 21.167 234 63.5s107 98.833 135 169.5v512
c-26.667 76.667 -68.834 140.834 -126.501 192.501s-137.834 77.5 -240.501 77.5c-114.667 0 -201.834 -46.833 -261.501 -140.5s-89.5 -215.5 -89.5 -365.5v-21z" />
    <glyph glyph-name="beta" unicode="&#x3b2;" horiz-adv-x="1213" 
d="M583 1477c117.333 0 211.833 -34.833 283.5 -104.5s107.5 -159.5 107.5 -269.5c0 -75.333 -18.667 -142.666 -56 -201.999s-90 -103 -158 -131c104 -22 183.167 -67.5 237.5 -136.5s81.5 -151.833 81.5 -248.5c0 -127.333 -40.667 -226.833 -122 -298.5
s-189 -107.5 -323 -107.5c-72.667 0 -145 14.5 -217 43.5s-128 70.833 -168 125.5v-561h-54v697c-0.666992 7.33301 -1.16699 13.5 -1.5 18.5s-0.5 10.167 -0.5 15.5l2 1v735c0 121.333 37.667 222.166 113 302.499s167 120.5 275 120.5zM579 791
c116.667 0 202.667 27.332 258 81.999s83 133 83 235c0 86 -28.833 160 -86.5 222s-141.167 93 -250.5 93c-94.667 0 -174 -35 -238 -105s-96 -158 -96 -264v-810c26 -63.333 74.667 -114.333 146 -153s151 -58 239 -58c126 0 222.5 30.5 289.5 91.5
s100.5 146.5 100.5 256.5c0 110.667 -35 197.334 -105 260.001s-170 94 -300 94h-143v56h103z" />
    <glyph glyph-name="gamma" unicode="&#x3b3;" horiz-adv-x="978" 
d="M877 1082h58l-419 -1077v-420h-54v417l-419 1080h58l334 -853l51 -146h6l52 146z" />
    <glyph glyph-name="delta" unicode="&#x3b4;" 
d="M948 1456l-0.000976562 -52.999h-666l-2 -6l550 -374c60.667 -41.333 109.834 -104.833 147.501 -190.5s56.5 -175.834 56.5 -270.501v-42c0 -159.333 -43.833 -289.333 -131.5 -390s-201.167 -151 -340.5 -151c-140.667 0 -255 50.333 -343 151s-132 230.667 -132 390
v42c0 158.667 43.833 288.334 131.5 389.001s201.5 151 341.5 151c10.667 0 20.5 -0.333008 29.5 -1s15.833 -1.33398 20.5 -2.00098l2 5l-427 298v54h763zM559.999 1048c-127.333 0 -228.999 -47.833 -304.999 -143.5s-114 -209.834 -114 -342.501v-42
c0 -136 38 -251.167 114 -345.5s178.333 -141.5 307 -141.5c126.667 0 228 47.333 304 142s114 209.667 114 345v42c0 132.667 -38.333 246.834 -115 342.501s-178.334 143.5 -305.001 143.5z" />
    <glyph glyph-name="epsilon" unicode="&#x3b5;" horiz-adv-x="1122" 
d="M116 290c0 68.667 20.833 125.334 62.5 170.001s103.834 76 186.501 94c-74 20.667 -130.833 53 -170.5 97s-59.5 94.333 -59.5 151c0 94.667 37 167.667 111 219s175.333 77 304 77c120 0 221 -27.167 303 -81.5s121.333 -124.833 118 -211.5l-2 -6h-44
c0 73.333 -35.833 132.5 -107.5 177.5s-160.834 67.5 -267.501 67.5c-120.667 0 -210.667 -21.833 -270 -65.5s-89 -101.5 -89 -173.5s29.167 -127.5 87.5 -166.5s149.833 -58.5 274.5 -58.5h165v-55h-165c-126.667 0 -222.167 -19.167 -286.5 -57.5
s-96.5 -98.5 -96.5 -180.5c0 -78.667 33 -139.834 99 -183.501s159.667 -65.5 281 -65.5c116 0 210.333 24.5 283 73.5s109 112.167 109 189.5h45l2 -6c3.33301 -100 -39 -177 -127 -231s-192 -81 -312 -81c-129.333 0 -234 27.333 -314 82s-120 129.667 -120 225z" />
    <glyph glyph-name="zeta" unicode="&#x3b6;" horiz-adv-x="977" 
d="M887 1456l0.00195312 -37.001l-442 -579c-82.667 -105.333 -139.834 -197.666 -171.501 -276.999s-47.5 -153.333 -47.5 -222c0 -78 29.667 -145.5 89 -202.5s146.666 -85.5 261.999 -85.5h103c70.667 0 122.5 -15.833 155.5 -47.5s49.5 -74.167 49.5 -127.5
c0 -58 -23.833 -111.5 -71.5 -160.5s-96.5 -81.167 -146.5 -96.5l-14 52c40.667 14 80.667 40.667 120 80s59 81.333 59 126c0 40 -12 70.167 -36 90.5s-62.333 30.5 -115 30.5h-104c-132 0 -232.333 33.5 -301 100.5s-103 147.167 -103 240.5
c0 75.333 17.167 155.5 51.5 240.5s95.5 184.167 183.5 297.5l398 524h-768v53h849z" />
    <glyph glyph-name="eta" unicode="&#x3b7;" 
d="M218 1082l7.00098 -219c33.333 76 81.166 134.833 143.499 176.5s139.5 62.5 231.5 62.5c118 0 206.5 -37.167 265.5 -111.5s88.5 -192.166 88.5 -353.499v-1053h-54v1055c0 150 -26.667 255.667 -80 317s-126.333 92 -219 92c-113.333 0 -199.833 -33 -259.5 -99
s-98.167 -151 -115.5 -255v-694h-54v554h-2c0 9.33301 0.166992 18.666 0.5 27.999s0.833008 21 1.5 35v465h46z" />
    <glyph glyph-name="theta" unicode="&#x3b8;" horiz-adv-x="1181" 
d="M1034 574c0 -190 -38.501 -336.667 -115.501 -440s-185.833 -155 -326.5 -155s-250 51.833 -328 155.5s-117 250.167 -117 439.5v308c0 189.333 38.667 335.833 116 439.5s186.333 155.5 327 155.5s249.834 -51.833 327.501 -155.5s116.5 -250.167 116.5 -439.5v-308z
M200.999 749h779.001v133c0 169.333 -33.333 301.833 -100 397.5s-163.334 143.5 -290.001 143.5s-223.167 -47.833 -289.5 -143.5s-99.5 -228.167 -99.5 -397.5v-133zM980 695l-779 -0.000976562v-119c0 -168 33.5 -300.5 100.5 -397.5s163.833 -145.5 290.5 -145.5
c126 0 222.167 48.333 288.5 145s99.5 229.334 99.5 398.001v119z" />
    <glyph glyph-name="iota" unicode="&#x3b9;" horiz-adv-x="565" 
d="M225 1081v-801.998c0 -90 16 -153.5 48 -190.5s77.667 -55.5 137 -55.5c18 0 34 0.666992 48 2s33.667 3.66602 59 6.99902l9 -50c-16 -4.66699 -33.5 -8 -52.5 -10s-39.167 -3 -60.5 -3c-84 0 -145.5 23.167 -184.5 69.5s-58.5 123.166 -58.5 230.499v802h55z" />
    <glyph glyph-name="kappa" unicode="&#x3ba;" horiz-adv-x="1084" 
d="M394 529h-168v-529h-55v1082h55v-500h178l489 500h61l3 -6l-503 -523l565 -547l-2 -6h-63z" />
    <glyph glyph-name="lambda" unicode="&#x3bb;" 
d="M112 0l-58.999 -0.000976562l431 1075l-65 177c-21.333 70 -46 122.833 -74 158.5s-67.667 53.5 -119 53.5c-8 0 -19.667 -0.833008 -35 -2.5s-26.333 -3.16699 -33 -4.5l-9 51c7.33301 2.66699 18.833 5 34.5 7s29.5 3 41.5 3c73.333 0 126.833 -24 160.5 -72
s62.834 -110 87.501 -186l361 -982c26 -72.667 52.5 -129.167 79.5 -169.5s59.5 -60.5 97.5 -60.5c7.33301 0 18.666 0.666992 33.999 2s26.666 3 33.999 5l9 -51c-8 -2.66699 -20 -5 -36 -7s-29.667 -3 -41 -3c-62 0 -108.167 23.333 -138.5 70
s-59.833 109.334 -88.5 188.001l-264 726l-6 15h-6l-41 -106z" />
    <glyph glyph-name="uni03BC" unicode="&#x3bc;" 
d="M223 1082l-0.000976562 -641.998c0 -148.667 28.333 -253.667 85 -315s130.334 -92 221.001 -92c122.667 0 212 31 268 93s90 149.667 102 263v693h54v-577h2c0 -10.667 -0.166992 -20.834 -0.5 -30.501s-0.833008 -21.834 -1.5 -36.501v-438h-41l-11 205
c-32 -72.667 -78 -128.5 -138 -167.5s-135 -58.5 -225 -58.5c-68.667 0 -130.5 15 -185.5 45s-98.167 79 -129.5 147v-587h-52v1498h52z" />
    <glyph glyph-name="nu" unicode="&#x3bd;" horiz-adv-x="978" 
d="M435 229l51 -146h6l52 146l333 853h58l-421 -1081l1 -1h-52l-420 1082h58z" />
    <glyph glyph-name="xi" unicode="&#x3be;" horiz-adv-x="1049" 
d="M694 1456l203.999 0.00292969v-54h-206c-140 0 -244.667 -25 -314 -75s-104 -116.333 -104 -199s32.5 -146.167 97.5 -190.5s166.833 -66.5 305.5 -66.5h122v-56h-122c-141.333 0 -257.5 -32.5 -348.5 -97.5s-136.5 -163.5 -136.5 -295.5
c0 -113.333 46.5 -203 139.5 -269s217.167 -99 372.5 -99h43c84 0 146 -17.833 186 -53.5s60 -83.167 60 -142.5c0 -53.333 -24 -102.5 -72 -147.5s-96.667 -74.5 -146 -88.5l-15 52c40.667 12 80.834 35.833 120.501 71.5s59.5 73.5 59.5 113.5
c0 47.333 -15.167 82.833 -45.5 106.5s-79.5 35.5 -147.5 35.5h-43c-161.333 -0.666992 -296.166 37.166 -404.499 113.499s-162.5 180.166 -162.5 311.499c0 106.667 30.667 195.667 92 267s145.333 120.666 252 147.999c-84 22 -148.667 58.333 -194 109
s-68 108.667 -68 174c0 63.333 15.167 118.5 45.5 165.5s74.166 84.5 131.499 112.5h-285v54h494c19.333 1.33301 35.5 2.33301 48.5 3s26.5 1 40.5 1v-4z" />
    <glyph glyph-name="omicron" unicode="&#x3bf;" 
d="M87 562c0 158.667 43.832 288.334 131.499 389.001s201.5 151 341.5 151c140.667 0 254.834 -50.333 342.501 -151s131.5 -230.334 131.5 -389.001v-42c0 -159.333 -43.833 -289.333 -131.5 -390s-201.167 -151 -340.5 -151c-140.667 0 -255 50.333 -343 151
s-132 230.667 -132 390v42zM140.999 520c0 -136 38.001 -251.167 114.001 -345.5s178.333 -141.5 307 -141.5c126.667 0 228 47.333 304 142s114 209.667 114 345v42c0 132.667 -38.333 246.834 -115 342.501s-178.334 143.5 -305.001 143.5
c-127.333 0 -229 -47.833 -305 -143.5s-114 -209.834 -114 -342.501v-42z" />
    <glyph glyph-name="pi" unicode="&#x3c0;" horiz-adv-x="1219" 
d="M1110 1027l-185 0.00195312v-748c0 -90 16 -153.5 48 -190.5s77.667 -55.5 137 -55.5c18 0 34 0.666992 48 2s33.667 3.66602 59 6.99902l9 -50c-16 -4.66699 -33.5 -8 -52.5 -10s-39.167 -3 -60.5 -3c-84 0 -145.5 23.167 -184.5 69.5s-58.5 123.166 -58.5 230.499v748
h-569v-1027h-54v1027h-165v55h1028v-55z" />
    <glyph glyph-name="rho" unicode="&#x3c1;" 
d="M999 521c0 -166.667 -35.999 -298.668 -107.999 -396.001s-171.333 -146 -298 -146c-84 0 -157.333 16.833 -220 50.5s-111.667 79.167 -147 136.5v-582h-54v716c-0.666992 0.666992 -1 1.33398 -1 2.00098v3l1 315v16c0 147.333 39.167 261.833 117.5 343.5
s179.166 122.5 302.499 122.5c126.667 0 226.167 -50.5 298.5 -151.5s108.5 -237.167 108.5 -408.5v-21zM944.001 541.999c0 150 -30.168 271.834 -90.501 365.501s-147.5 140.5 -261.5 140.5c-125.333 0 -217.666 -42.667 -276.999 -128s-89 -187 -89 -305v-351
c27.333 -70.667 72 -126.834 134 -168.501s140 -62.5 234 -62.5c114 0 200.833 44 260.5 132s89.5 206.667 89.5 356v21z" />
    <glyph glyph-name="sigma1" unicode="&#x3c2;" horiz-adv-x="1089" 
d="M573 1102c110.667 0 203.498 -32.834 278.498 -98.501s111.167 -158.167 108.5 -277.5l-2 -6h-46c0 106 -32.667 187.167 -98 243.5s-145.666 84.5 -240.999 84.5c-127.333 0 -225 -45.667 -293 -137s-102 -207.666 -102 -348.999v-42c0 -140 37 -253.667 111 -341
s180.333 -136.333 319 -147c86 -7.33301 148.333 -27.333 187 -60s58 -77.667 58 -135c0 -53.333 -24 -102.333 -72 -147s-97 -74.334 -147 -89.001l-15 52c40.667 12.667 80.834 36.5 120.501 71.5s59.5 72.5 59.5 112.5c0 45.333 -15 78.833 -45 100.5
s-80 35.167 -150 40.5c-150 11.333 -267.833 64.833 -353.5 160.5s-128.5 222.834 -128.5 381.501v42c0 160 40.667 290 122 390s191 150 329 150z" />
    <glyph glyph-name="sigma" unicode="&#x3c3;" 
d="M1117 1027l-345 0.000976562c82 -42 146.167 -103.167 192.5 -183.5s69.5 -173.5 69.5 -279.5v-43c0 -160 -43.667 -290.333 -131 -391s-201 -151 -341 -151c-140.667 0 -255 50.333 -343 151s-132 230.667 -132 390v42c0 151.333 43.667 275.666 131 372.999
s201 146.333 341 147h1h11h546v-55zM141 520.001c0 -136 37.999 -251.166 113.999 -345.499s178.333 -141.5 307 -141.5c126.667 0 228 47.333 304 142s114 209.667 114 345v42c0 127.333 -38.167 236.666 -114.5 327.999s-178.166 137 -305.499 137h-1
c-127.333 -0.666992 -228.833 -46.667 -304.5 -138s-113.5 -200.333 -113.5 -327v-42z" />
    <glyph glyph-name="tau" unicode="&#x3c4;" horiz-adv-x="1027" 
d="M954 1027h-424v-1027h-54v1027h-403v55h881v-55z" />
    <glyph glyph-name="upsilon" unicode="&#x3c5;" 
d="M222 1082l-0.000976562 -596.999c0 -154.667 30.333 -268.667 91 -342s143.667 -110 249 -110c126.667 0 217.334 43.833 272.001 131.5s82 199.5 82 335.5c0 106 -10 207.167 -30 303.5s-47.333 189.166 -82 278.499h66c32 -98 56.5 -188 73.5 -270s25.5 -185 25.5 -309
c0 -161.333 -33 -289 -99 -383s-168 -141 -306 -141c-124 0 -221 41.333 -291 124s-105 210.667 -105 384v595h54z" />
    <glyph glyph-name="phi" unicode="&#x3c6;" horiz-adv-x="1365" 
d="M707 1082c154.667 0 281.001 -51.835 379.001 -155.502s147 -237.167 147 -400.5c0 -150 -46.167 -277.167 -138.5 -381.5s-221.5 -159.166 -387.5 -164.499v-459h-54v459c-174.667 6.66699 -303.834 60.334 -387.501 161.001s-125.5 235.667 -125.5 405
c0 114.667 13.667 210.167 41 286.5s67 159.5 119 249.5h66c-53.333 -82 -95.5 -167.833 -126.5 -257.5s-46.5 -183.167 -46.5 -280.5c0 -144 34.667 -263 104 -357s186 -143 350 -147l6 2v1040h54zM1180 523.998c0 137.333 -44.333 255.332 -133 353.999
s-200 146.667 -334 144l-6 -2v-979l6 -2c147.333 1.33301 262 49.333 344 144s123 208.334 123 341.001z" />
    <glyph glyph-name="chi" unicode="&#x3c7;" horiz-adv-x="1050" 
d="M114 1090c62.667 0 108.834 -19.501 138.501 -58.501s66.167 -100.167 109.5 -183.5l192 -426l362 660h63l-397 -721l224 -497c52.667 -106 86.334 -170.833 101.001 -194.5s39.667 -35.5 75 -35.5c7.33301 0 18.666 0.833008 33.999 2.5s27 3.16699 35 4.5l9 -50
c-8 -2.66699 -20 -5 -36 -7s-30 -3 -42 -3c-48 0 -85.333 17.333 -112 52s-64.667 103 -114 205l-208 462l-393 -714h-59l425 775l-214 477c-42 82.667 -72.333 136.334 -91 161.001s-52.334 37 -101.001 37c-8.66699 0 -20.5 -0.833008 -35.5 -2.5s-25.833 -3.5 -32.5 -5.5
l-9 52c7.33301 2.66699 18.833 5 34.5 7s29.5 3 41.5 3z" />
    <glyph glyph-name="psi" unicode="&#x3c8;" horiz-adv-x="1366" 
d="M707 1081v-1039l6 -2c168 1.33301 287.833 53.333 359.5 156s107.5 233.334 107.5 392.001c0 89.333 -13.833 175.333 -41.5 258s-64.5 161.334 -110.5 236.001h67c44.667 -84 79 -160.833 103 -230.5s36 -156.834 36 -261.501
c0 -184.667 -43.167 -331.334 -129.5 -440.001s-218.833 -165.334 -397.5 -170.001v-395h-54v395c-158 6.66699 -281.667 59.834 -371 159.501s-134 249.834 -134 450.501v492h54v-494c0 -182 39.833 -318.167 119.5 -408.5s188.167 -136.5 325.5 -138.5l6 2v1038h54z" />
    <glyph glyph-name="omega" unicode="&#x3c9;" horiz-adv-x="1772" 
d="M357 1082c-47.333 -90 -84.5 -183.001 -111.5 -279.001s-40.5 -197 -40.5 -303c0 -130 28.167 -240.333 84.5 -331s139.5 -136 249.5 -136c95.333 0 171.5 34.667 228.5 104s87.167 177.333 90.5 324v26v283h56v-283c0 -3.33301 -0.166992 -8 -0.5 -14s-0.5 -10 -0.5 -12
c3.33301 -146.667 33.5 -254.667 90.5 -324s133.5 -104 229.5 -104c109.333 0 192.333 45.333 249 136s85 201 85 331c0 105.333 -13.667 206 -41 302s-64.333 189.333 -111 280h66c45.333 -100 79.833 -190.667 103.5 -272s35.5 -183.666 35.5 -306.999
c0 -156 -34 -282.333 -102 -379s-162.667 -145 -284 -145c-86.667 0 -160 22.5 -220 67.5s-102.667 114.167 -128 207.5c-26.667 -93.333 -70 -162.5 -130 -207.5s-133 -67.5 -219 -67.5c-122 0 -216.667 48.333 -284 145s-101 223 -101 379c0 124 11.833 227 35.5 309
s58.167 172 103.5 270h66z" />
    <glyph glyph-name="iotadieresis" unicode="&#x3ca;" horiz-adv-x="565" 
d="M225 1081v-801.998c0 -90 16 -153.5 48 -190.5s77.667 -55.5 137 -55.5c18 0 34 0.666992 48 2s33.667 3.66602 59 6.99902l9 -50c-16 -4.66699 -33.5 -8 -52.5 -10s-39.167 -3 -60.5 -3c-84 0 -145.5 23.167 -184.5 69.5s-58.5 123.166 -58.5 230.499v802h55zM508 1331
h-136v118h136v-118zM39 1331h-137v118h137v-118z" />
    <glyph glyph-name="upsilondieresis" unicode="&#x3cb;" 
d="M222 1082l-0.000976562 -596.999c0 -154.667 30.333 -268.667 91 -342s143.667 -110 249 -110c126.667 0 217.334 43.833 272.001 131.5s82 199.5 82 335.5c0 106 -10 207.167 -30 303.5s-47.333 189.166 -82 278.499h66c32 -98 56.5 -188 73.5 -270s25.5 -185 25.5 -309
c0 -161.333 -33 -289 -99 -383s-168 -141 -306 -141c-124 0 -221 41.333 -291 124s-105 210.667 -105 384v595h54zM855.999 1331h-136v118h136v-118zM386.999 1331h-137v118h137v-118z" />
    <glyph glyph-name="omicrontonos" unicode="&#x3cc;" 
d="M87 562c0 158.667 43.832 288.334 131.499 389.001s201.5 151 341.5 151c140.667 0 254.834 -50.333 342.501 -151s131.5 -230.334 131.5 -389.001v-42c0 -159.333 -43.833 -289.333 -131.5 -390s-201.167 -151 -340.5 -151c-140.667 0 -255 50.333 -343 151
s-132 230.667 -132 390v42zM140.999 520c0 -136 38.001 -251.167 114.001 -345.5s178.333 -141.5 307 -141.5c126.667 0 228 47.333 304 142s114 209.667 114 345v42c0 132.667 -38.333 246.834 -115 342.501s-178.334 143.5 -305.001 143.5
c-127.333 0 -229 -47.833 -305 -143.5s-114 -209.834 -114 -342.501v-42zM609 1486h106l-146 -263h-53z" />
    <glyph glyph-name="upsilontonos" unicode="&#x3cd;" 
d="M222 1082l-0.000976562 -596.999c0 -154.667 30.333 -268.667 91 -342s143.667 -110 249 -110c126.667 0 217.334 43.833 272.001 131.5s82 199.5 82 335.5c0 106 -10 207.167 -30 303.5s-47.333 189.166 -82 278.499h66c32 -98 56.5 -188 73.5 -270s25.5 -185 25.5 -309
c0 -161.333 -33 -289 -99 -383s-168 -141 -306 -141c-124 0 -221 41.333 -291 124s-105 210.667 -105 384v595h54zM571.999 1465h106l-146 -263h-53z" />
    <glyph glyph-name="omegatonos" unicode="&#x3ce;" horiz-adv-x="1772" 
d="M357 1082c-47.333 -90 -84.5 -183.001 -111.5 -279.001s-40.5 -197 -40.5 -303c0 -130 28.167 -240.333 84.5 -331s139.5 -136 249.5 -136c95.333 0 171.5 34.667 228.5 104s87.167 177.333 90.5 324v26v283h56v-283c0 -3.33301 -0.166992 -8 -0.5 -14s-0.5 -10 -0.5 -12
c3.33301 -146.667 33.5 -254.667 90.5 -324s133.5 -104 229.5 -104c109.333 0 192.333 45.333 249 136s85 201 85 331c0 105.333 -13.667 206 -41 302s-64.333 189.333 -111 280h66c45.333 -100 79.833 -190.667 103.5 -272s35.5 -183.666 35.5 -306.999
c0 -156 -34 -282.333 -102 -379s-162.667 -145 -284 -145c-86.667 0 -160 22.5 -220 67.5s-102.667 114.167 -128 207.5c-26.667 -93.333 -70 -162.5 -130 -207.5s-133 -67.5 -219 -67.5c-122 0 -216.667 48.333 -284 145s-101 223 -101 379c0 124 11.833 227 35.5 309
s58.167 172 103.5 270h66zM897 1465h106l-146 -263h-53z" />
    <glyph glyph-name="uni03D1" unicode="&#x3d1;" horiz-adv-x="1254" 
d="M558 1036l-0.00195312 62c0 114.667 25.833 206.5 77.5 275.5s118.167 103.5 199.5 103.5c86.667 0 154.834 -33.667 204.501 -101s74.5 -160 74.5 -278v-587c0 -170.667 -44.5 -302 -133.5 -394s-208.833 -138 -359.5 -138c-142 0 -256 48 -342 144
s-129 225.333 -129 388v741l54 2v-743c0 -148 37.333 -264.667 112 -350s176.334 -128 305.001 -128c140.667 0 249 40.333 325 121s114 199.667 114 357v74c-150.667 5.33301 -272 49.833 -364 133.5s-138 189.5 -138 317.5v0zM1060 1098
c0 106 -19.168 186.667 -57.501 242s-94.166 83 -167.499 83c-68 0 -122.167 -27.333 -162.5 -82s-60.5 -135.667 -60.5 -243v-64c0 -110 39.333 -201.667 118 -275s187 -111.333 325 -114l5 2v451z" />
    <glyph glyph-name="uni03D2" unicode="&#x3d2;" horiz-adv-x="1106" 
d="M812 1239c34.667 82.667 71.9971 141.334 111.997 176.001s90.333 52 151 52c19.333 0 38 -2.83301 56 -8.5s33.333 -12.167 46 -19.5l-23 -41c-9.33301 5.33301 -21.166 10.333 -35.499 15s-30.166 7 -47.499 7c-40 0 -76.833 -13.167 -110.5 -39.5
s-68.5 -81.5 -104.5 -165.5l-266 -598v-617h-55v623l-271 592c-38 84 -73.333 139.167 -106 165.5s-68.667 39.5 -108 39.5c-18 0 -34.167 -2.33301 -48.5 -7s-26.166 -9.66699 -35.499 -15l-23 41c13.333 7.33301 28.833 13.833 46.5 19.5s36.5 8.5 56.5 8.5
c60 0 110 -17.333 150 -52s77.333 -93.334 112 -176.001l199 -443l50 -124h6l51 124z" />
    <glyph glyph-name="uni03D6" unicode="&#x3d6;" horiz-adv-x="1612" 
d="M1584 1028l-197.997 0.00195312c35.333 -80 63.166 -159.833 83.499 -239.5s30.5 -174.834 30.5 -285.501c0 -156.667 -32 -283.167 -96 -379.5s-153.667 -144.5 -269 -144.5c-81.333 0 -150.333 22 -207 66s-97.334 112 -122.001 204
c-25.333 -92 -66.333 -160 -123 -204s-125.334 -66 -206.001 -66c-115.333 0 -205 48.333 -269 145s-96 223 -96 379c0 110 10 204.667 30 284s48 159.666 84 240.999h-187v55h1545v-55zM1447 500.002c0 94.667 -11.167 185.499 -33.5 272.499s-52.833 172.167 -91.5 255.5
h-1032c-39.333 -83.333 -70 -168.5 -92 -255.5s-33 -177.833 -33 -272.5c0 -130 26.5 -240.333 79.5 -331s131.167 -136 234.5 -136c92 0 164.833 36.667 218.5 110s80.5 187.333 80.5 342v287h56v-285c0 -8 -0.166992 -14.5 -0.5 -19.5s-0.5 -9.83301 -0.5 -14.5
c3.33301 -143.333 32 -249.166 86 -317.499s125.333 -102.5 214 -102.5c102.667 0 180.667 45.333 234 136s80 201 80 331z" />
    <glyph glyph-name="uni0400" unicode="&#x400;" horiz-adv-x="1166" 
d="M984 732h-730v-678h832v-54h-886v1456h886v-54h-832v-616h730v-54zM673 1567l-2 -5h-75l-234 261l2 5h89z" />
    <glyph glyph-name="uni0401" unicode="&#x401;" horiz-adv-x="1166" 
d="M984 732h-730v-678h832v-54h-886v1456h886v-54h-832v-616h730v-54zM930 1673h-136v118h136v-118zM461 1673h-137v118h137v-118z" />
    <glyph glyph-name="uni0402" unicode="&#x402;" horiz-adv-x="1577" 
d="M1167 1402h-530v-1402h-54v1402h-530v54h1114v-54zM673 840l248.999 -0.000976562c158.667 0 285 -35.5 379 -106.5s141 -183.833 141 -338.5c2 -84.667 -25.833 -169 -83.5 -253s-151.167 -138.333 -280.5 -163l-16 42c115.333 22.667 197.833 69.834 247.5 141.501
s75.834 149.167 78.501 232.5c4 132.667 -37.333 231.167 -124 295.5s-200.667 96.5 -342 96.5h-249v53z" />
    <glyph glyph-name="uni0403" unicode="&#x403;" horiz-adv-x="1122" 
d="M1055 1402h-808v-1402h-54v1456h862v-54zM773 1822h78l2 -5l-231 -261h-67l-2 5z" />
    <glyph glyph-name="uni0404" unicode="&#x404;" horiz-adv-x="1325" 
d="M1172 447l2 -6c2.66699 -149.333 -42.5 -263.5 -135.5 -342.5s-215.5 -118.5 -367.5 -118.5c-159.333 0 -287 58.833 -383 176.5s-144 272.167 -144 463.5v218c0 190.667 48 345 144 463s223.667 177 383 177c152 0 274.5 -39.667 367.5 -119
s138.167 -192.666 135.5 -339.999l-2 -6h-46c0 131.333 -40.833 232.666 -122.5 303.999s-192.5 107 -332.5 107c-142 0 -256.333 -53.667 -343 -161s-130 -248.333 -130 -423v-74h584v-54h-584v-92c0 -176.667 43.333 -318.5 130 -425.5s201 -160.5 343 -160.5
c140 0 250.833 34.333 332.5 103s122.5 172 122.5 310h46z" />
    <glyph glyph-name="uni0405" unicode="&#x405;" horiz-adv-x="1223" 
d="M1074 349c0 91.333 -33.5 164.334 -100.5 219.001s-183.167 104.667 -348.5 150c-166 44.667 -287.5 95.5 -364.5 152.5s-115.5 140.167 -115.5 249.5c0 108.667 45.333 195.334 136 260.001s206.334 97 347.001 97c142 0 258 -39.667 348 -119
s133.667 -181.333 131 -306l-2 -6h-46c0 108.667 -40 198.667 -120 270s-183.667 107 -311 107c-132 0 -236.5 -29.5 -313.5 -88.5s-115.5 -129.833 -115.5 -212.5s31.833 -151.334 95.5 -206.001s178.834 -103.334 345.501 -146.001
c161.333 -42.667 283.166 -94.834 365.499 -156.501s123.5 -149.167 123.5 -262.5c0 -115.333 -47 -206.166 -141 -272.499s-211.667 -99.5 -353 -99.5c-146 0 -271.667 34.167 -377 102.5s-156.333 175.833 -153 322.5l2 6h45c0 -132 48.667 -227.833 146 -287.5
s209.666 -89.5 336.999 -89.5c128 0 233.167 29.333 315.5 88s123.5 134.667 123.5 228z" />
    <glyph glyph-name="uni0406" unicode="&#x406;" horiz-adv-x="534" 
d="M294 0h-54v1456h54v-1456z" />
    <glyph glyph-name="uni0407" unicode="&#x407;" horiz-adv-x="534" 
d="M294 0h-54v1456h54v-1456zM580 1673h-136v118h136v-118zM111 1673h-137v118h137v-118z" />
    <glyph glyph-name="uni0408" unicode="&#x408;" horiz-adv-x="1125" 
d="M876 1456h54.001v-1034c0 -135.333 -38.167 -243 -114.5 -323s-174.5 -120 -294.5 -120c-133.333 0 -238.333 35.333 -315 106s-113.334 174 -110.001 310l2 6h46c0 -118.667 32.333 -209.667 97 -273s158 -95 280 -95c102 0 186.667 35 254 105s101 164.667 101 284
v1034z" />
    <glyph glyph-name="uni0409" unicode="&#x409;" horiz-adv-x="2209" 
d="M1233 1456v-647.999h369c151.333 0 267.833 -37.333 349.5 -112s122.5 -172 122.5 -292c0 -120.667 -41 -218.167 -123 -292.5s-198.333 -111.5 -349 -111.5h-423v1402h-609l-38 -580c-20.667 -314.667 -59.667 -530.334 -117 -647.001s-167 -175 -329 -175h-32v54h35
c132 0 224.833 51 278.5 153s90.5 307 110.5 615l42 634h713zM1233 754.001v-700.001h369c138.667 0 243 33.5 313 100.5s105 150.833 105 251.5c0 96.667 -35.167 178.834 -105.5 246.501s-174.5 101.5 -312.5 101.5h-369z" />
    <glyph glyph-name="uni040A" unicode="&#x40a;" horiz-adv-x="2209" 
d="M249 748l930 0.00195312v708h54v-646h369c151.333 0 267.833 -37.333 349.5 -112s122.5 -172.334 122.5 -293.001s-41 -218.334 -123 -293.001s-198.333 -112 -349 -112h-423v694h-930v-694h-54v1456h54v-708zM1233 756.002v-702.999h369c138.667 0 243 33.667 313 101
s105 151.666 105 252.999c0 96.667 -35.167 179 -105.5 247s-174.5 102 -312.5 102h-369z" />
    <glyph glyph-name="uni040B" unicode="&#x40b;" horiz-adv-x="1606" 
d="M1160 1402h-530.002v-482h327c158.667 0 278.334 -38.167 359.001 -114.5s121 -200.833 121 -373.5v-432h-54v432c0 150.667 -35.667 260.5 -107 329.5s-177.666 103.5 -318.999 103.5h-327v-865h-54v1402h-530v54h1114v-54z" />
    <glyph glyph-name="uni040C" unicode="&#x40c;" horiz-adv-x="1300" 
d="M477 711h-223v-711h-54v1456h54v-692h238l618 692h64l2 -5l-639 -721l685 -724l-3 -6h-63zM765 1734h78l2 -5l-231 -261h-67l-2 5z" />
    <glyph glyph-name="uni040D" unicode="&#x40d;" horiz-adv-x="1449" 
d="M1195 1456h54v-1456h-54v1354l-6 2l-935 -1356h-54v1456h54v-1351l6 -2zM790 1567l-2 -5h-75l-234 261l2 5h89z" />
    </font>
</defs>
</svg>
